<svg xmlns="http://www.w3.org/2000/svg"><defs><font id="ubuntu_titlingbold" horiz-adv-x="580"><font-face ascent="750" descent="-250"/><glyph horiz-adv-x="1000"/><glyph horiz-adv-x="1000"/><glyph horiz-adv-x="1000"/><glyph horiz-adv-x="256"/><glyph horiz-adv-x="256"/><glyph horiz-adv-x="256"/><glyph d="M77 603q0 18 16 32.5t43 14.5q26 0 41.5 -14.5t15.5 -32.5v-372q0 -18 -15.5 -32.5t-41.5 -14.5q-27 0 -43 14.5t-16 32.5v372zM77 62q0 18 16 32.5t43 14.5q26 0 41.5 -14.5t15.5 -32.5v-24q0 -18 -15.5 -32.5t-41.5 -14.5q-27 0 -43 14.5t-16 32.5v24z" horiz-adv-x="256" unicode="!"/><glyph d="M77 611q0 15 13 27t36 12q21 0 34 -12t13 -27l-9 -133q0 -12 -11 -22t-29 -10q-19 0 -30 10t-11 22zM225 611q0 15 13 27t36 12q21 0 34 -12t13 -27l-9 -133q0 -12 -11 -22t-29 -10q-19 0 -30 10t-11 22z" horiz-adv-x="377" unicode="&quot;"/><glyph d="M362 148h-102l-21 -120q-3 -17 -18.5 -29t-38.5 -8q-24 5 -36 22t-10 34l18 101h-57q-16 0 -28 13.5t-12 34.5q0 23 12 36.5t28 13.5h74l29 163h-75q-16 0 -28 13t-12 35q0 23 12 36.5t28 13.5h93l19 105q3 17 20.5 29t40.5 7t34 -21.5t9 -33.5l-16 -86h101l19 105 q3 17 20.5 29t40.5 7q22 -5 33.5 -21.5t9.5 -33.5l-16 -86h54q23 0 35.5 -13.5t12.5 -36.5q0 -22 -12.5 -35t-35.5 -13h-72l-29 -163h73q23 0 35.5 -13.5t12.5 -36.5q0 -21 -12.5 -34.5t-35.5 -13.5h-91l-21 -120q-3 -17 -18.5 -29t-38.5 -8q-24 5 -36 22t-10 34zM278 246 h101l29 163h-101z" horiz-adv-x="730" unicode="#"/><glyph d="M251 690q0 19 12.5 29t27 10t27 -10t12.5 -29l-2 -50q35 -7 61.5 -20.5t44 -29t26.5 -31t9 -26.5q0 -23 -11.5 -37.5t-38.5 -14.5q-16 0 -28.5 7t-23.5 16q-7 5 -17 12t-24 12l-5 -174q31 -12 62 -26.5t55.5 -36t39.5 -52t15 -73.5q0 -78 -48 -125.5t-133 -54.5l-1 -39 q0 -20 -12.5 -29.5t-27 -9.5t-27 9.5t-12.5 29.5l1 44q-26 5 -55 15t-53 24.5t-39.5 34t-15.5 43.5q0 47 52 47q17 -1 30 -9.5t24 -18.5q21 -21 59 -33l5 177q-32 13 -63.5 28t-57 36.5t-41 51.5t-15.5 72q0 80 49 130.5t138 55.5zM181 464q0 -28 17 -45.5t45 -31.5l4 151 q-30 -4 -48 -23t-18 -51zM376 159q0 26 -16 44.5t-42 32.5l-4 -148q29 5 45.5 22t16.5 49z" horiz-adv-x="553" unicode="$"/><glyph d="M52 521q0 29 12 53t32.5 40.5t47.5 25.5t58 9q30 0 57 -9t47.5 -25.5t32 -40.5t11.5 -53v-66q0 -29 -11.5 -53t-32 -40.5t-47.5 -25.5t-57 -9q-31 0 -58 9t-47.5 25.5t-32.5 40.5t-12 53v66zM441 184q0 29 11.5 53t32 40.5t47.5 25.5t58 9t58 -9t47 -25.5t31.5 -40.5 t11.5 -53v-66q0 -29 -11.5 -53t-31.5 -40.5t-47 -25.5t-58 -9t-58 9t-47.5 25.5t-32 40.5t-11.5 53v66zM500 624q8 16 28 23t44 -5q23 -11 28.5 -29t-3.5 -33l-310 -562q-9 -17 -29 -24.5t-43 3.5q-23 12 -29.5 30t2.5 35zM148 459q0 -23 15.5 -36.5t38.5 -13.5 q21 0 36.5 13.5t15.5 36.5v58q0 23 -15.5 36.5t-36.5 13.5q-23 0 -38.5 -13.5t-15.5 -36.5v-58zM537 122q0 -23 15.5 -36.5t37.5 -13.5q21 0 37 13.5t16 36.5v58q0 23 -16 36.5t-37 13.5q-22 0 -37.5 -13.5t-15.5 -36.5v-58z" horiz-adv-x="791" unicode="%"/><glyph d="M493 559q6 -15 4.5 -28t-9 -22t-18.5 -14.5t-23 -5.5q-14 0 -28.5 5.5t-24.5 19.5q-20 25 -48 31t-56 6q-18 0 -37 -5.5t-34.5 -17.5t-25.5 -31t-10 -46q0 -37 24 -61t63 -24h281q20 0 30 -14t10 -31.5t-10 -31.5t-30 -14h-39l1 -155q0 -36 -9.5 -54t-30.5 -35 q-20 -10 -39 -17.5t-40 -13t-45 -8t-54 -2.5q-43 0 -87 9.5t-80 30.5t-58.5 55.5t-22.5 84.5q0 58 32 94.5t83 56.5q-44 17 -70 51.5t-26 82.5q0 47 20 83.5t52.5 61t73.5 37.5t83 13q26 0 56 -4t57.5 -14t50 -27.5t34.5 -45.5zM389 101q12 7 16 18.5t4 28.5v127h-136 q-19 -3 -39 -11t-36 -20.5t-26.5 -30t-10.5 -39.5q0 -24 12 -40.5t31.5 -26.5t43.5 -14.5t48 -4.5q31 0 50 2.5t43 10.5z" horiz-adv-x="591" unicode="&amp;"/><glyph d="M60 605q0 22 16 33.5t35.5 11.5t35.5 -11.5t16 -33.5l-13 -153q0 -12 -11 -22t-29 -10q-19 0 -30 10t-11 22z" horiz-adv-x="223" unicode="'"/><glyph d="M328 -42q13 -20 10.5 -38t-14 -29.5t-29 -12t-34.5 14.5q-13 12 -27 29.5t-27.5 37.5t-24.5 41.5t-18 41.5q-41 115 -42 235t41 235q7 20 18.5 41.5t25 41.5t28.5 37.5t29 30.5q16 15 33 14.5t28 -12t13.5 -30t-10.5 -37.5q-10 -15 -20.5 -34.5t-20 -40.5t-17.5 -42.5 t-13 -40.5q-24 -91 -20.5 -187t35.5 -184q10 -27 26 -59t30 -53z" horiz-adv-x="430" unicode="("/><glyph d="M133 -42q14 21 30 53t26 59q32 88 35.5 184t-20.5 187q-5 19 -13 40.5t-17.5 42.5t-20 40.5t-20.5 34.5q-13 19 -10.5 37.5t13.5 30t27.5 12t33.5 -14.5q14 -13 29 -30.5t28.5 -37.5t25 -41.5t18.5 -41.5q42 -115 41 -235t-42 -235q-7 -20 -18 -41.5t-24.5 -41.5 t-28 -37.5t-27.5 -29.5q-17 -15 -34 -14.5t-28.5 12t-14 29.5t10.5 38z" horiz-adv-x="430" unicode=")"/><glyph d="M212 507l-2 103q0 21 14.5 31t32.5 10t32.5 -10t14.5 -31l-5 -105l100 46q19 9 35 0.5t23.5 -23.5t3.5 -32t-23 -26l-111 -44l82 -86q14 -16 10 -33t-17.5 -27.5t-31.5 -12t-32 14.5l-81 98l-81 -98q-14 -16 -32 -14.5t-31.5 12t-17.5 27.5t10 33l82 87l-109 43 q-20 9 -24 26t3.5 32t23.5 23.5t36 -0.5zM257 438l1 1h-1v-1z" horiz-adv-x="516" unicode="*"/><glyph d="M298 330h121q24 0 37 -12.5t13 -34.5q0 -20 -13 -32.5t-37 -12.5h-121v-115q0 -23 -13 -35.5t-36 -12.5q-22 0 -34.5 12.5t-12.5 35.5v115h-130q-16 0 -28.5 12.5t-12.5 32.5q0 22 12.5 34.5t28.5 12.5h130v123q0 15 12.5 27t34.5 12q23 0 36 -12t13 -27v-123z" horiz-adv-x="505" unicode="+"/><glyph d="M69 44q0 32 17.5 47.5t39.5 15.5q23 0 40.5 -12.5t17.5 -41.5q0 -70 -28 -122.5t-94 -85.5q-26 -10 -44.5 -2.5t-26 22.5t-2 33.5t28.5 31.5q33 17 42 48t9 66z" horiz-adv-x="243" unicode=","/><glyph d="M309 347q28 0 42.5 -14.5t14.5 -39.5q0 -23 -14.5 -37.5t-42.5 -14.5h-178q-18 0 -32.5 14.5t-14.5 37.5q0 25 14.5 39.5t32.5 14.5h178z" horiz-adv-x="446" unicode="-"/><glyph d="M55 64q0 19 17.5 34t47.5 15q27 0 44.5 -15t17.5 -34v-25q0 -19 -17.5 -34t-44.5 -15q-30 0 -47.5 15t-17.5 34v25z" horiz-adv-x="243" unicode="."/><glyph d="M247 621q6 17 26.5 25t46.5 -1q24 -8 33 -26.5t3 -35.5l-220 -563q-6 -17 -25.5 -25.5t-44.5 -0.5q-25 9 -35 28t-4 36z" horiz-adv-x="391" unicode="/"/><glyph d="M63 400q0 45 12 89.5t40.5 80t74.5 58t114 22.5t114.5 -22.5t75 -58t41 -80t12.5 -89.5v-160q0 -54 -16.5 -100t-47.5 -79t-76 -52t-103 -19q-57 0 -102 19t-76 52t-47 79t-16 100v160zM178 229q0 -66 30 -98.5t96 -32.5q69 0 97.5 32.5t28.5 98.5v181q0 66 -28.5 98.5 t-97.5 32.5q-68 0 -97 -32.5t-29 -98.5v-181z" horiz-adv-x="610" unicode="0"/><glyph d="M246 640q25 0 40.5 -14.5t15.5 -32.5v-556q0 -18 -15.5 -32.5t-40.5 -14.5q-28 0 -44 14.5t-16 32.5v497h-98q-26 0 -41.5 14.5t-15.5 37.5q0 25 15.5 39.5t41.5 14.5h158z" horiz-adv-x="376" unicode="1"/><glyph d="M481 473q0 -41 -17.5 -76t-45 -66.5t-61 -60.5t-64 -57t-55 -56t-34.5 -58h241q19 0 34 -12.5t15 -38.5q0 -24 -15 -36t-34 -12h-319q-19 0 -34.5 12t-15.5 36q0 2 -0.5 3.5t0.5 3.5q1 52 23.5 95t54.5 78.5t69.5 66.5t69.5 59.5t53 55.5t21 57q0 37 -17.5 58.5 t-65.5 21.5q-24 0 -40 -3.5t-28.5 -11.5t-23.5 -21t-24 -31q-10 -14 -29.5 -21t-42.5 4q-20 10 -24.5 25t0.5 31q3 14 16 36t38.5 43t64.5 36.5t94 15.5q54 0 91.5 -13.5t61 -37t33.5 -56t10 -70.5z" horiz-adv-x="543" unicode="2"/><glyph d="M212 276q-26 0 -41.5 12t-15.5 35q0 25 15.5 37t41.5 12h41q44 0 71 20.5t27 49.5v19q0 36 -24.5 61.5t-73.5 25.5q-29 0 -52 -10t-38 -20q-17 -11 -25.5 -14t-25.5 -3t-28.5 11t-11.5 31q0 17 14 36t38.5 34.5t57.5 26t71 10.5q58 0 99 -14t66.5 -37.5t37 -54.5 t11.5 -65v-15q0 -43 -25 -79t-70 -56q59 -17 87.5 -56t28.5 -90v-9q0 -34 -10.5 -67t-37 -59t-72.5 -42t-117 -16q-37 0 -73 9.5t-64 25.5t-45 35t-17 39t12 33.5t29 13.5t30.5 -3.5t29.5 -16.5q20 -18 46 -27.5t52 -9.5q63 0 93 25.5t30 61.5v17q0 33 -30.5 58t-90.5 25 h-41z" horiz-adv-x="541" unicode="3"/><glyph d="M344 239v125q0 18 16 32.5t44 14.5q25 0 40.5 -14.5t15.5 -32.5v-125h32q58 0 58 -52q0 -23 -14.5 -36.5t-43.5 -13.5h-32v-100q0 -18 -15.5 -32.5t-40.5 -14.5q-28 0 -44 14.5t-16 32.5v100h-266q-18 0 -32.5 14.5t-14.5 37.5q0 7 0.5 14t5.5 15l208 411 q11 16 30.5 20.5t43.5 -9.5q21 -12 27 -32t-4 -36l-173 -333h175z" horiz-adv-x="582" unicode="4"/><glyph d="M186 537l-15 -140h96q89 0 138 -50.5t49 -137.5v-23q0 -35 -12.5 -70.5t-39.5 -64t-69 -46t-100 -15.5q-39 0 -72 9t-57.5 24t-38 34t-13.5 40q0 20 11.5 32t28.5 12t30 -5.5t30 -16.5q15 -10 33.5 -17t46.5 -7q51 0 77.5 23.5t26.5 63.5v31q0 45 -26.5 66t-77.5 21h-96 q-39 -3 -57.5 10.5t-14.5 48.5l30 281h270q24 0 43 -14.5t19 -41.5q0 -17 -15.5 -32t-37.5 -15h-187z" horiz-adv-x="506" unicode="5"/><glyph d="M287 -10q-62 0 -106.5 21t-73 56.5t-42 83t-13.5 100.5v136q0 53 15 101t45.5 84t76.5 57t108 21q39 0 72 -9t57.5 -24t38 -34t13.5 -40q0 -20 -11.5 -31t-28.5 -11t-30 4.5t-30 15.5q-15 10 -34 17t-48 7q-57 0 -92 -36.5t-35 -114.5v-37q25 23 62 36.5t89 13.5 q90 -1 138.5 -51t48.5 -137v-33q0 -35 -12.5 -70.5t-39.5 -64t-68.5 -46t-99.5 -15.5zM172 197q8 -54 37 -78t77 -24q51 0 77.5 23.5t26.5 63.5v41q0 87 -104 87q-22 0 -42.5 -7.5t-36 -22t-24.5 -36t-9 -48.5z" horiz-adv-x="560" unicode="6"/><glyph d="M392 640q27 0 41.5 -14.5t15.5 -38.5q3 -16 -3 -28l-108 -219q-23 -48 -35.5 -93.5t-11.5 -107.5l1 -102q0 -18 -15.5 -32.5t-41.5 -14.5q-28 0 -44 14.5t-16 32.5l-1 99q-1 57 12.5 122.5t45.5 122.5l86 153h-240q-26 0 -41.5 14.5t-15.5 37.5q0 25 15.5 39.5t41.5 14.5 h314z" horiz-adv-x="492" unicode="7"/><glyph d="M288 650q58 0 99 -14t66.5 -37.5t37 -54.5t11.5 -65v-9q0 -43 -25.5 -82t-70.5 -59q60 -19 88.5 -57t28.5 -89v-9q0 -34 -11 -67t-38 -59t-72 -42t-113 -16t-113.5 16t-73 42t-39 59t-11.5 67v9q0 51 28.5 89t88.5 57q-45 20 -70.5 59t-25.5 82v9q0 34 11.5 65t37.5 54.5 t66.5 37.5t99.5 14zM288 550q-49 0 -73.5 -22.5t-24.5 -58.5v-21q0 -15 7 -29t20 -25t31 -18t40 -7q21 0 39 7t31 18t20 25t7 29v21q0 36 -24 58.5t-73 22.5zM289 86q57 0 87 27t30 63v17q0 33 -29 59.5t-88 26.5q-60 0 -90 -26.5t-30 -59.5v-17q0 -36 31.5 -63t88.5 -27z" horiz-adv-x="575" unicode="8"/><glyph d="M273 650q62 0 106 -21t72.5 -57t42 -84t13.5 -101v-134q0 -53 -15 -101t-45.5 -84t-76.5 -57t-108 -21q-39 0 -72 9t-57 24t-37.5 34t-13.5 40q0 20 11.5 31t28.5 11t30 -4.5t30 -15.5q15 -10 34 -17t48 -7q57 0 92 36.5t35 114.5v20l-7 4q-24 -23 -59.5 -38t-85.5 -15 q-44 0 -79 16t-59 43t-36.5 64t-12.5 80v19q0 35 12.5 73t39.5 69t69 50.5t100 18.5zM274 314q22 0 42.5 7t36.5 21t26 34.5t11 47.5q-12 121 -116 121q-26 0 -45 -8.5t-32.5 -22.5t-20 -32.5t-6.5 -38.5v-27q0 -45 26.5 -73.5t77.5 -28.5z" horiz-adv-x="560" unicode="9"/><glyph d="M55 0zM55 421q0 19 17.5 34t47.5 15q27 0 44.5 -15t17.5 -34v-25q0 -19 -17.5 -34t-44.5 -15q-30 0 -47.5 15t-17.5 34v25zM55 64q0 19 17.5 34t47.5 15q27 0 44.5 -15t17.5 -34v-25q0 -19 -17.5 -34t-44.5 -15q-30 0 -47.5 15t-17.5 34v25z" horiz-adv-x="243" unicode=":"/><glyph d="M0 0zM69 44q0 32 17.5 47.5t39.5 15.5q23 0 40.5 -12.5t17.5 -41.5q0 -70 -28 -122.5t-94 -85.5q-26 -10 -44.5 -2.5t-26 22.5t-2 33.5t28.5 31.5q33 17 42 48t9 66zM55 421q0 19 17.5 34t47.5 15q27 0 44.5 -15t17.5 -34v-25q0 -19 -17.5 -34t-44.5 -15q-30 0 -47.5 15 t-17.5 34v25z" horiz-adv-x="243" unicode=";"/><glyph d="M561 111q21 -17 24.5 -34.5t-6 -30.5t-29.5 -19.5t-44 -1.5q-106 52 -209.5 104t-209.5 105q-35 19 -35 45t35 45l415 186q24 5 44 -1.5t29.5 -19.5t6 -30.5t-25.5 -34.5l-327 -147l332 -166v0z" horiz-adv-x="639" unicode="&lt;"/><glyph d="M454 427q26 0 39.5 -13.5t13.5 -36.5q0 -22 -13.5 -35t-39.5 -13h-326q-17 0 -30.5 13t-13.5 35q0 23 13.5 36.5t30.5 13.5h326zM454 236q26 0 39.5 -13.5t13.5 -36.5q0 -21 -13.5 -34.5t-39.5 -13.5h-326q-17 0 -30.5 13.5t-13.5 34.5q0 23 13.5 36.5t30.5 13.5h326z" unicode="="/><glyph d="M79 424q-26 20 -26 43q0 11 5.5 20.5t15 16t22 8.5t27.5 -2q108 -52 215 -104t214 -105q34 -19 34 -45q0 -12 -8.5 -24t-25.5 -21l-424 -186q-15 -4 -27.5 -2t-22.5 8.5t-15.5 16t-5.5 20.5q0 23 26 43l328 147q-167 82 -332 166z" horiz-adv-x="639" unicode="&gt;"/><glyph d="M174 199q0 46 12.5 77t30.5 53t40 38t40 31t30.5 31.5t12.5 40.5q0 39 -22.5 58t-60.5 19q-24 0 -41 -3t-31 -10t-26 -19t-25 -30q-10 -14 -29.5 -21t-42.5 4q-20 10 -24 25t0 31q3 14 17.5 35.5t41 41.5t66.5 34.5t95 14.5q54 0 92 -16t61 -42t33.5 -59t10.5 -68 t-12.5 -59.5t-31.5 -42.5t-41 -32t-41 -30t-31.5 -35.5t-12.5 -47.5v-17q0 -14 -14.5 -30t-38.5 -17q-27 -1 -42.5 13.5t-15.5 31.5zM243 89q19 0 34 -12.5t15 -38.5q0 -24 -15 -36t-34 -12h-20q-20 0 -35 12t-15 36q0 26 15 38.5t35 12.5h20z" horiz-adv-x="526" unicode="?"/><glyph d="M597 70q44 0 73.5 19t47.5 50.5t26 73t8 88.5q0 43 -10.5 88.5t-40.5 82t-84 60t-140 23.5q-84 0 -149.5 -26.5t-111.5 -74.5t-70 -116t-24 -151q0 -76 23.5 -130.5t65 -90t97 -52t120.5 -16.5l44 1q20 0 31 -12t10.5 -27t-13 -27t-39.5 -12h-31q-75 0 -145.5 20 t-125.5 63t-88 111t-33 165t29 180t85.5 143.5t138.5 94.5t188 34q98 0 165.5 -27.5t109.5 -73t60.5 -105.5t18.5 -125q0 -62 -14.5 -117.5t-45 -97.5t-77 -66.5t-110.5 -24.5q-12 0 -25.5 1.5t-25.5 7.5t-21.5 18.5t-13.5 33.5l-6 2q-6 -10 -16 -20.5t-24.5 -19.5t-33 -15 t-40.5 -6q-31 0 -58.5 10.5t-48.5 33t-33 57.5t-12 83q0 67 20 117.5t52.5 84.5t74.5 51.5t87 17.5q38 0 69 -11.5t52 -32t31 -48.5t7 -62zM414 90q14 0 27 6t24.5 15t20.5 18.5t15 16.5l15 139q4 31 -11.5 52t-50.5 21q-48 0 -73.5 -40.5t-32.5 -116.5q-5 -51 10.5 -81 t55.5 -30z" horiz-adv-x="875" unicode="@"/><glyph d="M555 55q5 -17 -6 -35.5t-38 -25.5q-25 -6 -44.5 4t-24.5 27l-36 116h-218l-37 -117q-6 -17 -25.5 -27t-43.5 -4q-27 7 -38.5 25.5t-6.5 35.5l196 554q5 17 22.5 29.5t42.5 12.5q24 0 42 -12.5t23 -29.5zM219 239h156l-77 248z" horiz-adv-x="592" unicode="A"/><glyph d="M70 593q0 18 16.5 32.5t43.5 14.5h150q62 0 105.5 -15t71 -40t40 -56.5t12.5 -65.5v-7q0 -44 -20.5 -77t-68.5 -53q64 -19 87.5 -57t23.5 -88v-7q0 -34 -10.5 -65.5t-36.5 -55.5t-70.5 -38.5t-112.5 -14.5h-171q-27 0 -43.5 17t-16.5 35v541zM187 96h114q57 0 85 22 t28 58v15q0 36 -26.5 60t-86.5 24h-114v-179zM187 540v-173h114q46 4 69 24.5t23 52.5v19q0 36 -28 56.5t-85 20.5h-93z" horiz-adv-x="581" unicode="B"/><glyph d="M63 407q0 49 15 93.5t45 77.5t74 52.5t101 19.5q39 0 72 -9t57.5 -24t38 -34t13.5 -40q0 -20 -12 -31t-28 -11q-17 0 -30 4.5t-30 15.5q-16 10 -34.5 17t-47.5 7q-48 0 -82.5 -32t-34.5 -99v-189q0 -67 34.5 -98.5t82.5 -31.5q29 0 46.5 4.5t33.5 13.5q11 7 19 11.5 t14.5 7t13.5 3.5t16 1q20 0 29.5 -11.5t9.5 -28.5q0 -21 -13.5 -40t-38 -33.5t-57.5 -23.5t-72 -9q-57 0 -101 19.5t-74 52.5t-45 77t-15 94v174z" horiz-adv-x="499" unicode="C"/><glyph d="M75 593q0 18 16 32.5t44 14.5h129q68 0 118 -21.5t82.5 -58t48 -86t15.5 -105.5v-111q0 -54 -15.5 -101t-48 -82t-82.5 -55t-118 -20h-129q-28 0 -44 14.5t-16 32.5v546zM192 534v-428h72q69 0 108 36t39 105v132q0 73 -39 114t-108 41h-72z" horiz-adv-x="593" unicode="D"/><glyph d="M416 640q28 0 42.5 -14.5t14.5 -39.5q0 -23 -14.5 -37.5t-42.5 -14.5h-224v-157h150q29 0 43.5 -14.5t14.5 -39.5q0 -23 -14.5 -37.5t-43.5 -14.5h-150v-165h224q28 0 42.5 -14.5t14.5 -39.5q0 -23 -14.5 -37.5t-42.5 -14.5h-281q-27 0 -43.5 14.5t-16.5 32.5v546 q0 18 16.5 32.5t43.5 14.5h281v0z" horiz-adv-x="520" unicode="E"/><glyph d="M406 640q28 0 42.5 -14.5t14.5 -39.5q0 -23 -14.5 -37.5t-42.5 -14.5h-214v-167h151q28 0 42.5 -14.5t14.5 -39.5q0 -23 -14.5 -37.5t-42.5 -14.5h-151v-224q0 -18 -15.5 -32.5t-41.5 -14.5q-27 0 -43.5 14.5t-16.5 32.5v556q0 18 16.5 32.5t43.5 14.5h271v0z" horiz-adv-x="493" unicode="F"/><glyph d="M298 284q0 23 14.5 37.5t38.5 14.5h123q28 0 42.5 -12t14.5 -39v-195q-12 -20 -29 -38t-42 -32t-59.5 -22t-82.5 -8q-62 0 -109.5 19t-80 52t-49 77t-16.5 94v175q0 49 16 93.5t48 77.5t79 52.5t109 19.5q57 0 102 -16.5t68 -40.5q18 -20 17.5 -39t-13.5 -31.5t-35 -14.5 t-45 13q-17 11 -44.5 17.5t-50.5 6.5q-57 0 -95.5 -31.5t-38.5 -99.5v-190q0 -33 10.5 -57.5t29.5 -40.5t43.5 -23.5t53.5 -7.5t46.5 4.5t33.5 13.5l18 13v106h-64q-24 0 -38.5 14.5t-14.5 37.5z" horiz-adv-x="591" unicode="G"/><glyph d="M440 261h-248v-224q0 -18 -15.5 -32.5t-41.5 -14.5q-27 0 -43.5 14.5t-16.5 32.5v566q0 18 16.5 32.5t43.5 14.5q26 0 41.5 -14.5t15.5 -32.5v-236h248v236q0 18 16 32.5t44 14.5q25 0 41 -14.5t16 -32.5v-566q0 -18 -16 -32.5t-41 -14.5q-28 0 -44 14.5t-16 32.5v224z" horiz-adv-x="631" unicode="H"/><glyph d="M75 603q0 18 16 32.5t44 14.5q25 0 41 -14.5t16 -32.5v-565q0 -18 -16 -32.5t-41 -14.5q-28 0 -44 14.5t-16 32.5v565z" horiz-adv-x="267" unicode="I"/><glyph d="M66 103q17 0 30.5 -4t34.5 -4q35 0 49 16.5t14 55.5v436q0 18 16 32.5t41 14.5q28 0 44 -14.5t16 -32.5v-432q0 -99 -46 -139.5t-134 -40.5q-22 0 -42 4t-35.5 11.5t-24.5 19.5t-9 29q0 22 11.5 35t34.5 13z" horiz-adv-x="385" unicode="J"/><glyph d="M75 603q0 18 16 32.5t44 14.5q25 0 41 -14.5t16 -32.5v-241h31l192 271q6 7 15.5 11.5t21 5t23 -2.5t21.5 -11q19 -17 17.5 -40.5t-14.5 -36.5l-179 -239l203 -243q13 -13 10 -34.5t-23 -38.5q-19 -15 -41 -13.5t-34 15.5l-206 254h-37v-223q0 -18 -16 -32.5t-41 -14.5 q-28 0 -44 14.5t-16 32.5v566z" horiz-adv-x="547" unicode="K"/><glyph d="M75 603q0 18 16 32.5t44 14.5q25 0 41 -14.5t16 -32.5v-497h213q28 0 42.5 -14.5t14.5 -39.5q0 -23 -14.5 -37.5t-42.5 -14.5h-276q-26 2 -40 16t-14 31v556z" horiz-adv-x="473" unicode="L"/><glyph d="M368 181q-24 0 -40 13.5t-25 28.5l-111 233v-419q0 -18 -15.5 -32.5t-41.5 -14.5q-27 0 -43.5 14.5t-16.5 32.5v566q0 18 16.5 32.5t43.5 14.5h17q26 0 43 -9.5t26 -25.5l147 -296l147 296q10 16 27 26.5t43 9.5l16 -1q28 0 44 -14.5t16 -32.5v-566q0 -18 -16 -32.5 t-44 -14.5q-25 0 -40.5 14.5t-15.5 32.5v419l-112 -233q-8 -15 -24 -28.5t-41 -13.5z" horiz-adv-x="736" unicode="M"/><glyph d="M75 603q0 18 16.5 32.5t43.5 14.5q22 0 37 -11.5t19 -26.5l269 -393v384q0 18 16 32.5t44 14.5q25 0 40.5 -14.5t15.5 -32.5v-566q0 -18 -15.5 -32.5t-40.5 -14.5q-22 0 -36.5 8.5t-20.5 22.5l-3 5l-268 389v-378q0 -18 -15.5 -32.5t-41.5 -14.5q-27 0 -43.5 14.5 t-16.5 32.5v566z" horiz-adv-x="651" unicode="N"/><glyph d="M65 390q0 55 15 102.5t46 82.5t78.5 55t112.5 20q66 0 113.5 -20t79 -55t46.5 -82.5t15 -102.5v-140q0 -55 -15 -102.5t-46.5 -82.5t-79 -55t-113.5 -20q-65 0 -112.5 20t-78.5 55t-46 82.5t-15 102.5v140zM180 249q0 -82 37 -116.5t100 -34.5q65 0 101 34.5t36 116.5 v141q0 82 -36 116.5t-101 34.5q-63 0 -100 -34.5t-37 -116.5v-141z" horiz-adv-x="636" unicode="O"/><glyph d="M73 593q0 18 16.5 32.5t43.5 14.5h131q63 0 109 -16t76 -44.5t44 -66.5t14 -82v-11q0 -38 -13 -73t-42 -62t-75 -43.5t-113 -16.5h-74v-188q0 -18 -15.5 -32.5t-41.5 -14.5q-27 0 -43.5 17t-16.5 35v551zM190 540v-219h74q33 0 57 8t39.5 21t23 30t7.5 35v23 q0 43 -30 72.5t-97 29.5h-74z" horiz-adv-x="557" unicode="P"/><glyph d="M65 390q0 55 15 102.5t46 82.5t78.5 55t112.5 20q66 0 113.5 -20t79 -55t46.5 -82.5t15 -102.5v-140q0 -47 -11 -88t-33 -74t-56 -56.5t-80 -33.5q0 -39 14.5 -58.5t58.5 -19.5q15 0 30 3.5t28 4.5t23.5 -4t16.5 -23t1 -33t-19 -26t-34.5 -17t-45.5 -6q-93 0 -140.5 44 t-49.5 130q-54 6 -93.5 28.5t-65 56.5t-38 78t-12.5 94v140zM180 249q0 -82 37 -116.5t100 -34.5q65 0 101 34.5t36 116.5v141q0 82 -36 116.5t-101 34.5q-63 0 -100 -34.5t-37 -116.5v-141z" horiz-adv-x="636" unicode="Q"/><glyph d="M73 593q0 18 16.5 32.5t43.5 14.5h141q67 0 114 -14t75.5 -39.5t41.5 -61t13 -79.5v-7q0 -51 -23.5 -87.5t-82.5 -58.5l111 -227q11 -14 3 -34.5t-31 -34.5q-22 -11 -43 -5.5t-30 20.5l-112 240q-8 -1 -17 -1h-19h-84v-216q0 -18 -15.5 -31.5t-41.5 -13.5q-27 0 -43.5 16 t-16.5 34v553zM190 540v-193h84q68 0 97.5 23t29.5 59v19q0 43 -29.5 67.5t-97.5 24.5h-84z" horiz-adv-x="564" unicode="R"/><glyph d="M266 -10q-15 0 -37 3.5t-46 10.5t-47.5 17t-42.5 23.5t-31 30.5t-12 38q0 47 52 47q17 -1 30 -9.5t24 -18.5q17 -16 48 -28.5t66 -12.5q40 0 63 17.5t23 55.5q0 32 -21.5 52.5t-54.5 36.5t-70.5 31t-70.5 37.5t-54.5 56t-21.5 85.5q0 42 14 76t40 59t64 38.5t86 13.5 q50 0 87.5 -12.5t63 -30.5t38.5 -37.5t13 -32.5q0 -23 -11.5 -37.5t-38.5 -14.5q-16 0 -28.5 7t-23.5 16q-12 10 -37 23t-67 13q-36 0 -59 -19.5t-23 -56.5q0 -32 21.5 -51t54 -34t70.5 -30t70.5 -37.5t54 -56.5t21.5 -88q0 -84 -55 -132.5t-152 -48.5z" horiz-adv-x="523" unicode="S"/><glyph d="M445 640q29 0 43.5 -14.5t14.5 -39.5q0 -23 -14.5 -37.5t-43.5 -14.5h-131v-497q0 -18 -15.5 -32.5t-41.5 -14.5q-28 0 -44 14.5t-16 32.5v497h-118q-26 0 -41.5 14.5t-15.5 37.5q0 25 15.5 39.5t41.5 14.5h366z" horiz-adv-x="519" unicode="T"/><glyph d="M321 -10q-66 0 -113 19t-77 51t-44 75t-14 90v378q0 18 16.5 32.5t43.5 14.5q26 0 41.5 -14.5t15.5 -32.5v-377q0 -127 131 -127q130 0 130 127v377q0 18 16.5 32.5t41.5 14.5q27 0 43.5 -14.5t16.5 -32.5v-378q0 -47 -14 -90t-44 -75t-77 -51t-113 -19z" horiz-adv-x="650" unicode="U"/><glyph d="M358 32q-5 -17 -23 -29.5t-42 -12.5q-25 0 -42.5 12.5t-22.5 29.5l-196 555q-5 17 6.5 35.5t38.5 25.5q24 6 43.5 -4t25.5 -27l147 -458l144 457q5 17 24.5 27t44.5 4q27 -7 38 -25.5t6 -35.5z" horiz-adv-x="582" unicode="V"/><glyph d="M301 32q-5 -17 -22.5 -29.5t-42.5 -12.5t-42.5 12.5t-22.5 29.5l-119 555q-5 17 6.5 35.5t37.5 25.5q25 6 44.5 -4t25.5 -27l75 -454l109 438q15 49 60 49q29 0 42 -12.5t21 -36.5l109 -438l75 454q5 17 25 27t44 4q27 -7 38.5 -25.5t6.5 -35.5l-119 -555 q-5 -17 -23 -29.5t-42 -12.5q-25 0 -42.5 12.5t-22.5 29.5l-111 414z" horiz-adv-x="823" unicode="W"/><glyph d="M274 408l129 223q11 14 33 17.5t45 -10.5q21 -13 25.5 -33.5t-5.5 -34.5l-157 -251l155 -248q11 -15 6 -35.5t-28 -35.5q-21 -13 -42 -9t-32 19l-129 220l-128 -220q-11 -15 -32.5 -19t-42.5 9q-23 15 -28 35.5t6 35.5l154 248l-155 251q-11 14 -6 34.5t26 33.5 q23 14 45 10.5t33 -17.5z" horiz-adv-x="548" unicode="X"/><glyph d="M214 239l-181 331q-11 14 -6 34.5t26 33.5q23 14 45 10.5t33 -17.5l144 -283l145 283q11 14 33 17.5t45 -10.5q21 -13 25.5 -33.5t-5.5 -34.5l-188 -342v-190q0 -18 -15.5 -32.5t-40.5 -14.5q-28 0 -44 14.5t-16 32.5v201z" horiz-adv-x="550" unicode="Y"/><glyph d="M342 541h-240q-19 0 -34 12t-15 36q0 26 15 38.5t34 12.5h339q19 0 34.5 -12.5t15.5 -38.5q0 -23 -14 -35h1l-288 -455h261q19 0 34 -12.5t15 -38.5q0 -24 -15 -36t-34 -12h-361q-20 0 -35 12t-15 36t14 38z" horiz-adv-x="540" unicode="Z"/><glyph d="M253 664q32 -2 44.5 -18.5t10.5 -34.5q-2 -17 -14 -30t-41 -15h-44v-597h39q32 -2 44.5 -19.5t8.5 -36.5q-2 -16 -14.5 -28t-38.5 -14h-99q-24 6 -36 19t-12 38v678q0 26 12 39t36 19h104v0z" horiz-adv-x="351" unicode="["/><glyph d="M356 58q6 -17 -3.5 -36t-35.5 -28q-24 -8 -44 0.5t-26 25.5l-220 563q-6 17 3 35.5t33 26.5q26 9 46.5 1t26.5 -25z" horiz-adv-x="391" unicode="\"/><glyph d="M197 664q25 -6 37 -19t12 -39v-678q0 -25 -12 -38t-37 -19h-98q-27 2 -39.5 14t-14.5 28q-3 19 9.5 36.5t44.5 19.5h39v597h-45q-28 2 -40 15t-14 30q-2 18 10 34.5t44 18.5h104z" horiz-adv-x="351" unicode="]"/><glyph d="M167 615q5 14 19 24.5t34 10.5t35 -10.5t19 -24.5l98 -225q5 -14 -5 -29.5t-32 -21.5q-20 -5 -36 3.5t-21 22.5l-58 151l-57 -151q-5 -14 -21.5 -22.5t-36.5 -3.5q-22 6 -31.5 21.5t-4.5 29.5z" horiz-adv-x="470" unicode="^"/><glyph d="M411 -1q28 0 42.5 -14.5t14.5 -39.5q0 -23 -14.5 -37.5t-42.5 -14.5h-345q-18 0 -32.5 14.5t-14.5 37.5q0 25 14.5 39.5t32.5 14.5h345z" horiz-adv-x="481" unicode="_"/><glyph d="M50 601q-21 9 -25 29t4.5 38t25.5 28t38 1l141 -75q17 -9 21.5 -24t-2.5 -31q-8 -16 -24.5 -21.5t-27.5 -0.5z" horiz-adv-x="294" unicode="`"/><glyph d="M446 -15q-25 0 -40.5 14.5t-15.5 32.5v16l-9 3q-9 -13 -19.5 -24t-25.5 -19.5t-35.5 -13t-50.5 -4.5q-48 0 -84 17.5t-59 45.5t-34.5 64t-11.5 74v88q0 42 15 83t44 74t73 53.5t103 20.5q55 0 95 -15t65.5 -41.5t37.5 -62.5t12 -79v-280q0 -18 -16 -32.5t-44 -14.5z M390 310q0 50 -24.5 70.5t-69.5 20.5q-26 0 -47 -9.5t-36 -26t-23.5 -37.5t-8.5 -45v-96q0 -36 27 -62t67 -26q22 0 42.5 7.5t36.5 22t26 36.5t10 51v94z" unicode="a"/><glyph d="M190 461l6 -3q20 25 50 38.5t68 13.5q55 0 95 -17.5t66 -49t39 -74t13 -93.5v-58q0 -47 -13.5 -88.5t-41.5 -73t-69.5 -50t-97.5 -18.5q-58 0 -101.5 15t-72.5 42t-43.5 63.5t-14.5 79.5v445q0 18 16.5 32.5t43.5 14.5q26 0 41.5 -14.5t15.5 -32.5v-172zM295 401 q-44 0 -73.5 -24.5t-31.5 -77.5v-115q0 -45 33 -66t82 -21q47 0 75.5 32t28.5 85v60q0 62 -31.5 94.5t-82.5 32.5z" horiz-adv-x="582" unicode="b"/><glyph d="M55 292q0 45 12.5 84.5t39.5 69.5t69 47t101 17q51 0 88 -13.5t60 -36.5q13 -13 14 -32.5t-8.5 -34.5t-29 -21t-47.5 8q-15 8 -33 14.5t-44 6.5q-52 0 -78 -31t-26 -84v-72q0 -53 26 -84t78 -31q26 0 47 5.5t33 12.5q21 11 39.5 7.5t29.5 -16t13 -30t-11 -35.5 q-19 -26 -60.5 -39.5t-90.5 -13.5q-59 0 -101 17t-69 47t-39.5 69.5t-12.5 84.5v84z" horiz-adv-x="470" unicode="c"/><glyph d="M259 511q41 0 72.5 -16.5t51.5 -39.5l7 1v183q0 18 15.5 32.5t40.5 14.5q28 0 44 -14.5t16 -32.5v-431q0 -47 -14 -87t-41.5 -69t-69 -45.5t-96.5 -16.5q-59 0 -102.5 18t-72.5 49t-43.5 72.5t-14.5 88.5v65q0 47 12 88.5t37 72.5t64 49t94 18zM285 99q44 0 74.5 25 t30.5 80v96q-2 53 -32.5 77.5t-72.5 24.5q-52 0 -83.5 -31t-31.5 -84v-73q0 -53 31.5 -84t83.5 -31z" unicode="d"/><glyph d="M484 307q0 -47 -18 -66t-60 -19h-237v-26q0 -48 29.5 -77t83.5 -29q27 0 49.5 3.5t35.5 9.5q14 7 27 14t24 7q20 0 31 -12t12 -31q0 -16 -14 -32t-38 -29t-56.5 -21.5t-69.5 -8.5q-51 0 -93 16t-72.5 43t-47.5 63.5t-17 77.5v106q0 44 16.5 83t45.5 68t69 46t88 17 q57 0 97 -18.5t65.5 -48t37.5 -65.5t12 -71zM271 413q-45 0 -71.5 -28.5t-30.5 -75.5h204v15q0 41 -28.5 65t-73.5 24z" horiz-adv-x="537" unicode="e"/><glyph d="M101 500v30q0 94 45.5 132t133.5 38q22 0 42 -4t35.5 -12.5t24.5 -20.5t9 -27q0 -22 -11.5 -35t-34.5 -13q-17 0 -30.5 4t-34.5 4q-35 0 -49 -14t-14 -48v-34h77q17 0 30 -12.5t13 -32.5q0 -22 -13 -34.5t-30 -12.5h-77v-371q0 -18 -15.5 -32.5t-40.5 -14.5 q-28 0 -44 14.5t-16 32.5v371h-35q-17 0 -30 12.5t-13 34.5q0 20 13 32.5t30 12.5h35z" horiz-adv-x="366" unicode="f"/><glyph d="M498 0q0 -56 -18 -96.5t-48.5 -67t-70.5 -39.5t-84 -13q-38 0 -68 4t-43 9q-33 21 -33 51q0 22 13.5 35t41.5 13q11 0 31.5 -4t57.5 -4q23 0 42 4.5t33 17t22 34t8 56.5v49l-4 2q-16 -27 -46.5 -44t-80.5 -17q-94 0 -145 58.5t-51 160.5v59q0 47 14.5 91t43.5 77.5 t72.5 54t102.5 20.5q55 0 95 -14.5t65.5 -40t37.5 -60.5t12 -75v-321zM277 99q42 0 72.5 24.5t32.5 76.5v125q0 39 -24.5 58t-69.5 19q-26 0 -47 -10.5t-36 -28t-23.5 -41t-8.5 -50.5v-67q0 -106 104 -106z" horiz-adv-x="568" unicode="g"/><glyph d="M517 37q0 -18 -17 -32.5t-43 -14.5t-42 14.5t-16 32.5v258q0 48 -26.5 77.5t-77.5 29.5q-44 0 -73.5 -24.5t-31.5 -77.5v-263q0 -18 -15.5 -32.5t-41.5 -14.5q-27 0 -43.5 14.5t-16.5 32.5v596q0 18 16.5 32.5t43.5 14.5q26 0 41.5 -14.5t15.5 -32.5v-187l6 -1 q18 29 49 47.5t75 18.5q55 0 92.5 -17.5t60.5 -47t33.5 -68.5t10.5 -82v-259z" horiz-adv-x="590" unicode="h"/><glyph d="M80 463q0 18 16.5 32.5t43.5 14.5q26 0 41.5 -14.5t15.5 -32.5v-426q0 -18 -15.5 -32.5t-41.5 -14.5q-27 0 -43.5 14.5t-16.5 32.5v426zM80 643q0 18 16.5 32.5t43.5 14.5q26 0 41.5 -14.5t15.5 -32.5v-24q0 -18 -15.5 -32.5t-41.5 -14.5q-27 0 -43.5 14.5t-16.5 32.5v24 z" horiz-adv-x="277" unicode="i"/><glyph d="M-15 -94q17 0 31 -4t34 -4q35 0 49 16.5t14 55.5v493q0 18 15.5 32.5t41.5 14.5q28 0 44 -14.5t16 -32.5v-489q0 -99 -46 -139.5t-134 -40.5q-21 0 -41 3t-35.5 10.5t-24.5 19.5t-9 31q0 22 11 35t34 13zM112 643q0 18 16 32.5t44 14.5q26 0 41.5 -14.5t15.5 -32.5v-24 q0 -18 -15.5 -32.5t-41.5 -14.5q-28 0 -44 14.5t-16 32.5v24z" horiz-adv-x="310" unicode="j"/><glyph d="M73 633q0 18 16.5 32.5t43.5 14.5q26 0 41.5 -14.5t15.5 -32.5v-313h46l145 176q14 13 38 13.5t43 -17.5q17 -19 13.5 -42t-17.5 -35l-129 -142l159 -199q12 -14 8 -35t-27 -37q-20 -14 -41.5 -11t-32.5 17l-161 210h-44v-180q0 -18 -15.5 -32.5t-41.5 -14.5 q-27 0 -43.5 14.5t-16.5 32.5v595z" horiz-adv-x="525" unicode="k"/><glyph d="M80 633q0 18 16.5 32.5t43.5 14.5q26 0 41.5 -14.5t15.5 -32.5v-596q0 -18 -15.5 -32.5t-41.5 -14.5q-27 0 -43.5 14.5t-16.5 32.5v596z" horiz-adv-x="277" unicode="l"/><glyph d="M579 509q58 0 96 -16.5t60 -46t31 -70t9 -87.5v-252q0 -18 -16 -32.5t-44 -14.5q-25 0 -40.5 14.5t-15.5 32.5v256q0 55 -20.5 81t-69.5 26q-87 0 -87 -107v-260l-2 -9l-2 -3q-1 -2 -1.5 -3.5t-2.5 -3.5q-7 -10 -19 -16.5t-28 -7.5h-5q-23 0 -38 11t-19 27l-1 2v263 q0 107 -87 107q-50 0 -70 -26t-20 -81v-256q0 -18 -15.5 -32.5t-41.5 -14.5q-27 0 -43.5 14.5t-16.5 32.5v252q0 47 9 87.5t31.5 70t60.5 46t96 16.5t95.5 -21.5t59.5 -56.5q23 35 60 56.5t97 21.5z" horiz-adv-x="845" unicode="m"/><glyph d="M292 510q55 0 96.5 -15t69.5 -42.5t42 -66.5t14 -86v-263q0 -18 -17 -32.5t-43 -14.5t-42 14.5t-16 32.5v257q0 55 -29.5 81t-74.5 26t-75 -26t-30 -81v-257q0 -18 -15.5 -32.5t-41.5 -14.5q-27 0 -43.5 14.5t-16.5 32.5v253q0 47 14 87.5t42 70t69.5 46t96.5 16.5z" horiz-adv-x="584" unicode="n"/><glyph d="M55 281q0 47 13.5 88.5t41 73t70.5 49.5t102 18q58 0 101 -18t71 -49.5t41.5 -73t13.5 -88.5v-69q0 -45 -13.5 -85t-41.5 -70t-71 -47.5t-101 -17.5q-59 0 -102 17.5t-70.5 47.5t-41 70t-13.5 85v69zM173 211q0 -55 29 -85t80 -30t80 30t29 85v72q0 60 -29 91t-80 31 t-80 -31t-29 -91v-72z" horiz-adv-x="564" unicode="o"/><glyph d="M190 42v-215q0 -18 -15.5 -32.5t-41.5 -14.5q-27 0 -43.5 14.5t-16.5 32.5v483q0 43 14 79.5t42 63.5t69.5 42t96.5 15q58 0 102 -18.5t72.5 -50t43 -73t14.5 -88.5v-59q0 -47 -12 -88.5t-37 -73t-64 -50t-94 -18.5q-41 0 -70.5 14.5t-51.5 38.5zM190 207q0 -55 30 -81 t75 -26q51 0 82.5 32t31.5 85v67q0 53 -31.5 85t-82.5 32q-45 0 -75 -21t-30 -66v-107z" horiz-adv-x="582" unicode="p"/><glyph d="M446 -220q-25 0 -40.5 14.5t-15.5 32.5v218l-6 2q-22 -26 -52.5 -41.5t-72.5 -15.5q-55 0 -94 18.5t-64 50t-37 73t-12 88.5v60q0 47 14.5 88.5t43.5 73t72.5 50t102.5 18.5q55 0 96.5 -15t69 -42t41.5 -63.5t14 -79.5v-483q0 -18 -16 -32.5t-44 -14.5zM285 99 q42 0 72.5 24.5t32.5 76.5v114q0 45 -30.5 66t-74.5 21q-52 0 -83.5 -32t-31.5 -85v-68q0 -53 31.5 -85t83.5 -32z" unicode="q"/><glyph d="M286 401q-22 0 -40 -3t-30.5 -12t-19 -26t-6.5 -44v-279q0 -18 -15.5 -32.5t-41.5 -14.5q-27 0 -43.5 14.5t-16.5 32.5v275q0 95 51 146.5t162 51.5q51 0 77.5 -20t20.5 -56q-3 -18 -13 -25.5t-24 -9t-30 0t-31 1.5z" horiz-adv-x="393" unicode="r"/><glyph d="M55 62q-3 6 -4 15t1.5 18t8 17t15.5 12q14 6 24.5 6t18.5 -3.5t15 -9t14 -10.5q29 -22 91 -22q32 0 51.5 14t19.5 37t-18 36.5t-45.5 23t-59 19t-59 26t-45.5 42.5t-18 70q0 70 49 113.5t135 43.5q38 0 66 -6.5t46.5 -15.5t29 -19.5t14.5 -19.5q7 -14 5.5 -32.5 t-15.5 -28.5q-20 -13 -37 -8.5t-31 12.5q-8 4 -25.5 11.5t-52.5 7.5q-32 0 -48.5 -15.5t-16.5 -38.5q0 -19 17.5 -29.5t44 -19t57.5 -18t57.5 -27t44 -46.5t17.5 -75q0 -70 -49 -111t-134 -41q-31 0 -60.5 5.5t-54 15.5t-42.5 23t-27 28z" horiz-adv-x="472" unicode="s"/><glyph d="M103 500v103q0 18 16 32.5t44 14.5q26 0 41.5 -14.5t15.5 -32.5v-103h74q17 0 30 -12.5t13 -32.5q0 -22 -13 -34.5t-30 -12.5h-74v-242q0 -42 11 -57t32 -15q20 0 34 3.5t32 3.5q23 0 33.5 -12.5t10.5 -34.5q0 -19 -10 -31t-26.5 -19.5t-38 -10.5t-45.5 -3 q-78 0 -114 40.5t-36 139.5v238h-40q-17 0 -30 12.5t-13 34.5q0 20 13 32.5t30 12.5h40z" horiz-adv-x="414" unicode="t"/><glyph d="M292 -10q-55 0 -96.5 16.5t-69.5 46t-42 70t-14 87.5v252q0 18 16.5 32.5t43.5 14.5q26 0 41.5 -14.5t15.5 -32.5v-256q0 -55 30 -81t75 -26t74.5 26t29.5 81v256q0 18 16 32.5t42 14.5t43 -14.5t17 -32.5v-252q0 -47 -14 -87.5t-42 -70t-69.5 -46t-96.5 -16.5z" horiz-adv-x="584" unicode="u"/><glyph d="M335 32q-5 -17 -23 -29.5t-42 -12.5q-25 0 -42.5 12.5t-22.5 29.5l-161 414q-5 17 6 35.5t38 25.5q25 6 44.5 -4t24.5 -27l113 -340l112 340q6 17 25.5 27t43.5 4q27 -7 38.5 -25.5t6.5 -35.5z" horiz-adv-x="540" unicode="v"/><glyph d="M568 -10q-59 0 -95 20.5t-57 55.5q-22 -35 -58.5 -55.5t-93.5 -20.5q-55 0 -92 16.5t-59 46t-31 70t-9 87.5v253q0 18 16.5 32.5t43.5 14.5q26 0 41.5 -14.5t15.5 -32.5v-257q0 -55 19.5 -81t64.5 -26t64 26t19 81v261q0 9 6 17t15 13.5t19.5 9t19.5 3.5q20 0 39 -12 t19 -34v-258q0 -55 19 -81t64 -26q44 0 64 26t20 81v257q0 18 15.5 32.5t40.5 14.5q28 0 44 -14.5t16 -32.5v-253q0 -47 -9 -87.5t-31 -70t-58.5 -46t-91.5 -16.5z" horiz-adv-x="831" unicode="w"/><glyph d="M265 338l108 154q11 14 32.5 17.5t44.5 -10.5q22 -13 26.5 -33.5t-6.5 -34.5l-135 -182l134 -178q11 -15 6 -35.5t-28 -35.5q-21 -13 -42.5 -9t-31.5 19l-108 150l-108 -150q-10 -15 -31.5 -19t-42.5 9q-23 15 -28 35.5t6 35.5l133 178l-134 182q-11 14 -6.5 34.5 t26.5 33.5q23 14 44.5 10.5t32.5 -17.5z" horiz-adv-x="530" unicode="x"/><glyph d="M386 468q-1 15 15.5 29t43.5 14q26 0 42 -14.5t16 -32.5v-499q-1 -48 -17.5 -83.5t-45 -58t-67 -33.5t-81.5 -11q-49 0 -78 4t-43 9q-33 21 -33 51q0 22 14 35t42 13q11 0 37 -4t61 -4q47 0 70.5 21.5t23.5 60.5v76l-5 2q-22 -26 -50.5 -39t-71.5 -13q-55 0 -91 15.5 t-57 43.5t-29.5 66.5t-8.5 84.5v263q0 18 17 32.5t43 14.5t42 -14.5t16 -32.5v-267q0 -47 21 -72t73 -25q36 0 63.5 17.5t37.5 54.5v296v0z" horiz-adv-x="576" unicode="y"/><glyph d="M309 401h-207q-19 0 -34.5 12t-15.5 36q0 26 15.5 38.5t34.5 12.5h317q19 0 34 -12.5t15 -38.5q0 -21 -13 -34l1 -1l-243 -315h228q19 0 34 -12.5t15 -38.5q0 -24 -15 -36t-34 -12h-339q-19 0 -34.5 12t-15.5 36t14 38z" horiz-adv-x="543" unicode="z"/><glyph d="M214 292q33 -10 56 -44t23 -105q0 -33 -9 -62t-9 -60q0 -26 7.5 -46t38.5 -20q18 0 34.5 -7t16.5 -33q0 -15 -8 -24.5t-20 -14.5t-26 -7t-26 -2q-44 0 -73 19.5t-44.5 50.5t-18 69t6.5 75q18 76 -0.5 122t-68.5 46q-23 0 -36.5 13t-13.5 32t13.5 32t36.5 13q50 0 68.5 46 t0.5 122q-9 37 -6.5 75t18 69t44.5 50.5t73 19.5q12 0 26 -2t26 -7t20 -14t8 -24q0 -27 -16.5 -34t-34.5 -7q-31 0 -38.5 -16.5t-7.5 -38.5q0 -38 9 -69.5t9 -63.5q0 -71 -23 -105t-56 -44v-4z" horiz-adv-x="426" unicode="{"/><glyph d="M63 659q0 18 16 32.5t44 14.5q25 0 41 -14.5t16 -32.5v-751q0 -18 -16 -32.5t-41 -14.5q-28 0 -44 14.5t-16 32.5v751z" horiz-adv-x="243" unicode="|"/><glyph d="M212 296q-33 10 -56 44t-23 105q0 33 9 62t9 60q0 26 -7.5 46t-38.5 20q-18 0 -34 7t-16 33q0 15 8 24.5t20 14.5t25.5 7t25.5 2q44 0 73 -19.5t45 -50.5t18.5 -69t-6.5 -75q-19 -76 0 -122t68 -46q23 0 36.5 -13t13.5 -32t-13.5 -32t-36.5 -13q-49 0 -68 -46t0 -122 q9 -37 6.5 -75t-18.5 -69t-45 -50.5t-73 -19.5q-12 0 -25.5 2t-25.5 7t-20 14t-8 24q0 27 16 34t34 7q31 0 38.5 16.5t7.5 38.5q0 38 -9 69.5t-9 63.5q0 71 23 105t56 44v4z" horiz-adv-x="426" unicode="}"/><glyph d="M178 315q-5 -7 -6.5 -19t-7 -24t-17.5 -20.5t-37 -8.5q-22 0 -40 15t-18 44t13 54t35.5 44t53.5 29.5t68 10.5q48 0 81.5 -17t61 -37.5t54 -37.5t61.5 -17q26 0 37.5 14.5t20 31.5t20 31.5t37.5 14.5q20 0 37 -12.5t22 -38.5q0 -33 -16 -58.5t-41.5 -43.5t-57.5 -27 t-64 -9q-34 0 -58.5 7.5t-44 19.5t-35 25t-30 25t-31 19.5t-36.5 7.5q-18 0 -34.5 -4t-27.5 -19z" horiz-adv-x="707" unicode="~"/><glyph d="M71 0zM187.005 -99.9629q0 -17.999 -15.999 -32.498t-42.998 -14.499q-25.998 0 -41.4971 14.499t-15.499 32.498v371.977q0 17.999 15.499 32.498q15.499 14.5 41.4971 14.5q26.999 0 42.998 -14.5q15.999 -14.499 15.999 -32.498v-371.977zM187.005 441.004 q0 -17.999 -15.999 -32.498t-42.998 -14.499q-25.998 0 -41.4971 14.499t-15.499 32.498v23.998q0 17.999 15.499 32.498t41.4971 14.499q26.999 0 42.998 -14.499t15.999 -32.498v-23.998z" horiz-adv-x="256" unicode="¡"/><glyph d="M234 559q0 25 16 38t35.5 13t35.5 -13t16 -38v-52q54 -11 87 -37.5t33 -58.5q0 -16 -4 -27.5t-20 -20.5q-10 -6 -20 -6t-19.5 4t-18.5 9.5t-16 10.5q-14 9 -31 15.5t-43 6.5q-52 0 -78 -37.5t-26 -99.5v-32q0 -62 26 -99.5t78 -37.5q26 0 42 4.5t30 12.5q10 6 19.5 12.5 t18.5 11t18.5 5t19.5 -5.5q16 -9 20 -20.5t4 -27.5q0 -32 -33.5 -59t-86.5 -37v-74q0 -26 -16 -38.5t-35.5 -12.5t-35.5 12.5t-16 38.5v74q-45 8 -77.5 30.5t-53 55t-30.5 73.5t-10 86v24q0 45 10 85.5t30.5 73.5t53 55.5t77.5 30.5v52v0z" horiz-adv-x="520" unicode="¢"/><glyph d="M5 258q-25 0 -37.5 17t-12.5 37t12.5 37t37.5 17h49v54q0 60 11.5 102t36.5 69t64 39.5t94 12.5t94.5 -18t68.5 -44q18 -16 17.5 -35.5t-12.5 -33.5t-33.5 -17.5t-46.5 11.5q-5 3 -12.5 9t-18 12t-25 11t-32.5 5q-43 0 -61.5 -28.5t-18.5 -94.5v-54h111q25 0 37 -17 t12 -37t-12 -37t-37 -17h-111v-67q0 -23 -2.5 -40t-5.5 -28q-4 -13 -7 -23h257q20 0 31 -15.5t11.5 -34.5t-9.5 -34.5t-33 -15.5h-378q-21 0 -33 10t-14 25t5.5 32.5t24.5 31.5q10 8 15.5 15t8 17.5t3 27.5t0.5 45v54h-49v0z" horiz-adv-x="461" unicode="£"/><glyph d="M161 327l-140 242q-11 14 -6 34.5t26 33.5q23 14 45 10.5t33 -17.5l149 -272l150 272q11 14 33 17.5t45 -10.5q21 -13 25.5 -33.5t-5.5 -34.5l-141 -242h55q46 0 46 -43q0 -18 -12 -29t-34 -11h-103l-4 -8v-48h107q22 0 34 -11.5t12 -31.5q0 -18 -12 -29t-34 -11h-107 v-67q0 -18 -15.5 -32.5t-40.5 -14.5q-28 0 -44 14.5t-16 32.5v67h-116q-15 0 -26 11t-11 29q0 20 11 31.5t26 11.5h116v56h-116q-15 0 -26 11t-11 29q0 20 11 31.5t26 11.5h70z" horiz-adv-x="534" unicode="¥"/><glyph d="M43 513zM43 587q0 19 17.5 34t47.5 15q27 0 44.5 -15t17.5 -34v-25q0 -19 -17.5 -34t-44.5 -15q-30 0 -47.5 15t-17.5 34v25zM263 587q0 19 17.5 34t47.5 15q27 0 44.5 -15t17.5 -34v-25q0 -19 -17.5 -34t-44.5 -15q-30 0 -47.5 15t-17.5 34v25z" horiz-adv-x="432" unicode="¨"/><glyph d="M110 253q0 -72 23 -132t66 -104t103 -68.5t135 -24.5q74 0 134.5 24.5t103 68.5t65.5 104t23 132q0 69 -23 128t-65.5 102t-103 67t-134.5 24q-75 0 -135 -24t-103 -67t-66 -102t-23 -128zM21 253q0 85 29.5 158t84 126t131 83t171.5 30q94 0 171 -30t131.5 -83t84 -126 t29.5 -158q0 -88 -29.5 -162t-84 -128t-131.5 -84.5t-171 -30.5q-95 0 -171.5 30.5t-131 84.5t-84 128t-29.5 162zM251 319q0 39 12 73t35 60t57.5 41t79.5 15q30 0 56 -7t45 -18.5t29.5 -26.5t10.5 -31t-9.5 -24.5t-21.5 -8.5q-13 0 -23.5 3.5t-23.5 12.5q-13 8 -27 13 t-37 5q-38 0 -64.5 -24.5t-26.5 -77.5v-147q0 -53 26.5 -77.5t64.5 -24.5q23 0 36.5 3.5t25.5 10.5q18 11 26.5 14.5t23.5 3.5t22.5 -9t7.5 -22q0 -16 -10.5 -31t-29.5 -26.5t-45 -18.5t-56 -7q-45 0 -79.5 15t-57.5 41t-35 60.5t-12 73.5v136z" horiz-adv-x="874" unicode="©"/><glyph d="M53 24zM285 101q7 -18 -0.5 -35.5t-22.5 -28.5t-34 -12.5t-36 12.5l-129 181q-9 15 -10 27t6 28l128 171q16 18 37 17.5t37.5 -12.5t23 -31t-5.5 -38l-94 -132zM505 101q7 -18 -0.5 -35.5t-22.5 -28.5t-34 -12.5t-36 12.5l-129 181q-9 15 -10 27t6 28l128 171 q16 18 37 17.5t37.5 -12.5t23 -31t-5.5 -38l-94 -132z" horiz-adv-x="562" unicode="«"/><glyph d="M309 347q28 0 42.5 -14.5t14.5 -39.5q0 -23 -14.5 -37.5t-42.5 -14.5h-178q-18 0 -32.5 14.5t-14.5 37.5q0 25 14.5 39.5t32.5 14.5h178z" horiz-adv-x="446" unicode="­"/><glyph d="M110 253q0 -72 23 -132t66 -104t103 -68.5t135 -24.5q74 0 134.5 24.5t103 68.5t65.5 104t23 132t-23 132t-65.5 104t-103 68.5t-134.5 24.5q-75 0 -135 -24.5t-103 -68.5t-66 -104t-23 -132zM21 253q0 88 29.5 162t84 128t131 84.5t171.5 30.5q94 0 171 -30.5 t131.5 -84.5t84 -128t29.5 -162t-29.5 -162t-84 -128t-131.5 -84.5t-171 -30.5q-95 0 -171.5 30.5t-131 84.5t-84 128t-29.5 162zM285 458q0 14 12.5 24.5t32.5 10.5h106q50 0 85 -10.5t56.5 -29t31 -45.5t9.5 -60v-5q0 -38 -17.5 -65t-61.5 -44l82 -170q8 -11 2.5 -26 t-23.5 -25q-16 -8 -31.5 -4t-22.5 15l-84 179q-6 -1 -12.5 -1h-13.5h-63v-161q0 -14 -11.5 -23.5t-31.5 -9.5t-32.5 11.5t-12.5 25.5v413zM373 418v-144h63q51 0 72.5 17.5t21.5 43.5v15q0 32 -21.5 50t-72.5 18h-63z" horiz-adv-x="874" unicode="®"/><glyph d="M56 517zM417.034 616.084q26.3281 0 39.9629 -13.542q13.6338 -13.543 13.6338 -36.8916q0 -21.4814 -13.6338 -35.0234q-13.6348 -13.543 -39.9629 -13.543h-315.003q-16.9258 0 -31.0303 13.543q-14.1045 13.542 -14.1045 35.0234q0 23.3486 14.1045 36.8916 q14.1045 13.542 31.0303 13.542h315.003z" horiz-adv-x="545" unicode="¯"/><glyph d="M21 504q0 30 12 56t32 45.5t47.5 30.5t58.5 11q30 0 56.5 -11t46.5 -30.5t32 -45.5t12 -56q0 -28 -12 -53.5t-32 -44.5t-46.5 -30.5t-56.5 -11.5q-31 0 -58.5 11.5t-47.5 30.5t-32 44.5t-12 53.5zM108 504q0 -25 18.5 -41t44.5 -16t43 16t17 41t-17 42.5t-43 17.5 t-44.5 -17.5t-18.5 -42.5z" horiz-adv-x="339" unicode="°"/><glyph d="M66 545q-12 -5 -27.5 2.5t-23.5 23.5t-2.5 31.5t16.5 20.5l141 75q21 9 39 -1.5t26.5 -28.5t5 -38t-24.5 -29z" horiz-adv-x="294" unicode="´"/><glyph d="M364 640q28 0 44 -14.5t16 -32.5v-551q0 -18 -16 -35t-44 -17q-25 0 -40.5 14.5t-15.5 32.5v188h-32q-56 0 -95 16.5t-63 43.5t-34.5 62t-10.5 73v7q0 44 12 82.5t36.5 67.5t63 46t91.5 17h88z" horiz-adv-x="529" unicode="¶"/><glyph d="M55 266zM55 340q0 19 17.5 34t47.5 15q27 0 44.5 -15t17.5 -34v-25q0 -19 -17.5 -34t-44.5 -15q-30 0 -47.5 15t-17.5 34v25z" horiz-adv-x="243" unicode="·"/><glyph d="M204 37q20 -23 36 -53.5t13 -64.5q-2 -28 -20.5 -48t-45 -29.5t-58 -7t-59.5 19.5q-14 9 -17.5 23t1.5 25.5t17 17t29 -1.5q13 -6 25.5 -9.5t23 -3t17.5 6t10 16.5q6 21 -3 44.5t-36 63.5z" horiz-adv-x="304" unicode="¸"/><glyph d="M56 24zM57 385q-8 18 -0.5 35.5t22.5 28.5t34 12.5t36 -12.5l129 -181q9 -15 10 -27t-6 -28l-128 -171q-17 -18 -37.5 -17.5t-37 12.5t-23 31t5.5 38l94 132zM283 385q-8 18 -0.5 35.5t22.5 28.5t34 12.5t36 -12.5l129 -181q9 -15 10 -27t-6 -28l-128 -171 q-17 -18 -37.5 -17.5t-37 12.5t-23 31t5.5 38l94 132z" horiz-adv-x="567" unicode="»"/><glyph d="M53 0zM334.011 301.012q0 -45.9971 -12.499 -76.9951q-12.5 -30.998 -30.498 -52.9961q-17.999 -21.999 -39.998 -37.998t-39.9971 -30.998q-17.999 -14.999 -30.499 -31.498q-12.499 -16.499 -12.499 -40.498q0 -38.9971 22.499 -57.9961 q22.498 -18.999 60.4961 -18.999q23.999 0 40.998 3q16.998 3 30.998 9.99902q13.999 7 25.998 18.999t24.998 29.998q10 13.999 29.499 20.999q19.498 7 42.4971 -4q19.999 -9.99902 23.998 -24.998q4 -14.999 0 -30.998q-2.99902 -13.999 -17.499 -35.498 q-14.499 -21.499 -40.9971 -41.4971q-26.498 -19.999 -66.4961 -34.498q-39.9971 -14.499 -94.9941 -14.499q-53.9961 0 -91.9941 15.999t-60.9961 41.9971q-22.999 25.998 -33.498 58.9961q-10.5 32.998 -10.5 67.9961t12.5 59.4961q12.499 24.499 31.498 42.498 q18.998 17.999 40.9971 31.998t40.998 29.998q18.998 15.999 31.498 35.498q12.499 19.498 12.499 47.4971v16.999q0 13.999 14.499 29.998t38.4971 16.999q26.999 1 42.498 -13.5q15.499 -14.499 15.499 -31.498zM265.015 411.006q-18.999 0 -33.998 12.499 t-14.999 38.4971q0 23.999 14.999 35.998t33.998 11.999h19.999q19.999 0 34.998 -11.999t14.999 -35.998q0 -25.998 -14.999 -38.4971t-34.998 -12.499h-19.999z" horiz-adv-x="526" unicode="¿"/><glyph d="M37 0zM555 55q5 -17 -6 -35.5t-38 -25.5q-25 -6 -44.5 4t-24.5 27l-36 116h-218l-37 -117q-6 -17 -25.5 -27t-43.5 -4q-27 7 -38.5 25.5t-6.5 35.5l196 554q5 17 22.5 29.5t42.5 12.5q24 0 42 -12.5t23 -29.5zM219 239h156l-77 248zM130 774q-21 9 -25 29t4.5 38t25.5 28 t38 1l141 -75q17 -9 21.5 -24t-2.5 -31q-8 -16 -24.5 -21.5t-27.5 -0.5z" horiz-adv-x="592" unicode="À"/><glyph d="M37 0zM555 55q5 -17 -6 -35.5t-38 -25.5q-25 -6 -44.5 4t-24.5 27l-36 116h-218l-37 -117q-6 -17 -25.5 -27t-43.5 -4q-27 7 -38.5 25.5t-6.5 35.5l196 554q5 17 22.5 29.5t42.5 12.5q24 0 42 -12.5t23 -29.5zM219 239h156l-77 248zM306 720q-12 -5 -27.5 2.5t-23.5 23.5 t-2.5 31.5t16.5 20.5l141 75q21 9 39 -1.5t26.5 -28.5t5 -38t-24.5 -29z" horiz-adv-x="592" unicode="Á"/><glyph d="M37 0zM555 55q5 -17 -6 -35.5t-38 -25.5q-25 -6 -44.5 4t-24.5 27l-36 116h-218l-37 -117q-6 -17 -25.5 -27t-43.5 -4q-27 7 -38.5 25.5t-6.5 35.5l196 554q5 17 22.5 29.5t42.5 12.5q24 0 42 -12.5t23 -29.5zM219 239h156l-77 248zM190 709q-14 -5 -27 0t-20.5 16 t-8 25.5t11.5 26.5l131 88q12 6 21.5 7t22.5 -4l123 -87q15 -12 16 -27.5t-7.5 -27.5t-23 -17t-29.5 4l-99 70z" horiz-adv-x="592" unicode="Â"/><glyph d="M37 0zM555 55q5 -17 -6 -35.5t-38 -25.5q-25 -6 -44.5 4t-24.5 27l-36 116h-218l-37 -117q-6 -17 -25.5 -27t-43.5 -4q-27 7 -38.5 25.5t-6.5 35.5l196 554q5 17 22.5 29.5t42.5 12.5q24 0 42 -12.5t23 -29.5zM219 239h156l-77 248zM229 761q-27 0 -37.5 -9t-16.5 -20.5 t-12.5 -20.5t-24.5 -9q-22 0 -34 14t-12 34q0 26 10.5 46t28.5 34t41.5 21t48.5 7q29 0 51.5 -11t42 -23.5t37.5 -23.5t39 -11t29.5 9t14 19.5t12.5 19.5t27 10q19 0 31.5 -12t16.5 -29q3 -24 -7 -43.5t-27.5 -34t-40.5 -22.5t-46 -8q-29 0 -50.5 10t-40.5 21.5t-38 21.5 t-43 10z" horiz-adv-x="592" unicode="Ã"/><glyph d="M37 0zM555 55q5 -17 -6 -35.5t-38 -25.5q-25 -6 -44.5 4t-24.5 27l-36 116h-218l-37 -117q-6 -17 -25.5 -27t-43.5 -4q-27 7 -38.5 25.5t-6.5 35.5l196 554q5 17 22.5 29.5t42.5 12.5q24 0 42 -12.5t23 -29.5zM219 239h156l-77 248zM123 777q0 19 17.5 34t47.5 15 q27 0 44.5 -15t17.5 -34v-25q0 -19 -17.5 -34t-44.5 -15q-30 0 -47.5 15t-17.5 34v25zM344 777q0 19 17.5 34t47.5 15q27 0 44.5 -15t17.5 -34v-25q0 -19 -17.5 -34t-44.5 -15q-30 0 -47.5 15t-17.5 34v25z" horiz-adv-x="592" unicode="Ä"/><glyph d="M37 0zM555 55q5 -17 -6 -35.5t-38 -25.5q-25 -6 -44.5 4t-24.5 27l-36 116h-218l-37 -117q-6 -17 -25.5 -27t-43.5 -4q-27 7 -38.5 25.5t-6.5 35.5l196 554q5 17 22.5 29.5t42.5 12.5q24 0 42 -12.5t23 -29.5zM219 239h156l-77 248zM191 804q0 21 8.5 39.5t22.5 32 t33.5 21.5t41.5 8q21 0 40 -8t33 -21.5t22.5 -32t8.5 -39.5q0 -20 -8.5 -38t-22.5 -31.5t-33 -21.5t-40 -8q-22 0 -41.5 8t-33.5 21.5t-22.5 31.5t-8.5 38zM253 804q0 -17 13 -28.5t31 -11.5t30 11.5t12 28.5t-12 29.5t-30 12.5t-31 -12.5t-13 -29.5z" horiz-adv-x="592" unicode="Å"/><glyph d="M63 407q0 49 15 93.5t45 77.5t74 52.5t101 19.5q39 0 72 -9t57.5 -24t38 -34t13.5 -40q0 -20 -12 -31t-28 -11q-17 0 -30 4.5t-30 15.5q-16 10 -34.5 17t-47.5 7q-48 0 -82.5 -32t-34.5 -99v-189q0 -67 34.5 -98.5t82.5 -31.5q29 0 46.5 4.5t33.5 13.5q11 7 19 11.5 t14.5 7t13.5 3.5t16 1q20 0 29.5 -11.5t9.5 -28.5q0 -36 -38.5 -65.5t-100.5 -37.5q9 -17 14.5 -35.5t3.5 -38.5q-2 -28 -20.5 -48t-45 -29.5t-58 -7t-59.5 19.5q-14 9 -17.5 23t1.5 25.5t17 17t29 -1.5q13 -6 25.5 -9.5t23 -3t17.5 6t10 16.5q4 14 1.5 29t-13.5 35 q-50 4 -88.5 25t-64.5 53.5t-39.5 74t-13.5 88.5v174z" horiz-adv-x="499" unicode="Ç"/><glyph d="M75 0zM416 640q28 0 42.5 -14.5t14.5 -39.5q0 -23 -14.5 -37.5t-42.5 -14.5h-224v-157h150q29 0 43.5 -14.5t14.5 -39.5q0 -23 -14.5 -37.5t-43.5 -14.5h-150v-165h224q28 0 42.5 -14.5t14.5 -39.5q0 -23 -14.5 -37.5t-42.5 -14.5h-281q-27 0 -43.5 14.5t-16.5 32.5v546 q0 18 16.5 32.5t43.5 14.5h281v0zM108 765q-21 9 -25 29t4.5 38t25.5 28t38 1l141 -75q17 -9 21.5 -24t-2.5 -31q-8 -16 -24.5 -21.5t-27.5 -0.5z" horiz-adv-x="520" unicode="È"/><glyph d="M75 0zM416 640q28 0 42.5 -14.5t14.5 -39.5q0 -23 -14.5 -37.5t-42.5 -14.5h-224v-157h150q29 0 43.5 -14.5t14.5 -39.5q0 -23 -14.5 -37.5t-43.5 -14.5h-150v-165h224q28 0 42.5 -14.5t14.5 -39.5q0 -23 -14.5 -37.5t-42.5 -14.5h-281q-27 0 -43.5 14.5t-16.5 32.5v546 q0 18 16.5 32.5t43.5 14.5h281v0zM284 711q-12 -5 -27.5 2.5t-23.5 23.5t-2.5 31.5t16.5 20.5l141 75q21 9 39 -1.5t26.5 -28.5t5 -38t-24.5 -29z" horiz-adv-x="520" unicode="É"/><glyph d="M75 0zM416 640q28 0 42.5 -14.5t14.5 -39.5q0 -23 -14.5 -37.5t-42.5 -14.5h-224v-157h150q29 0 43.5 -14.5t14.5 -39.5q0 -23 -14.5 -37.5t-43.5 -14.5h-150v-165h224q28 0 42.5 -14.5t14.5 -39.5q0 -23 -14.5 -37.5t-42.5 -14.5h-281q-27 0 -43.5 14.5t-16.5 32.5v546 q0 18 16.5 32.5t43.5 14.5h281v0zM168 700q-14 -5 -27 0t-20.5 16t-8 25.5t11.5 26.5l131 88q12 6 21.5 7t22.5 -4l123 -87q15 -12 16 -27.5t-7.5 -27.5t-23 -17t-29.5 4l-99 70z" horiz-adv-x="520" unicode="Ê"/><glyph d="M75 0zM416 640q28 0 42.5 -14.5t14.5 -39.5q0 -23 -14.5 -37.5t-42.5 -14.5h-224v-157h150q29 0 43.5 -14.5t14.5 -39.5q0 -23 -14.5 -37.5t-43.5 -14.5h-150v-165h224q28 0 42.5 -14.5t14.5 -39.5q0 -23 -14.5 -37.5t-42.5 -14.5h-281q-27 0 -43.5 14.5t-16.5 32.5v546 q0 18 16.5 32.5t43.5 14.5h281v0zM101 768q0 19 17.5 34t47.5 15q27 0 44.5 -15t17.5 -34v-25q0 -19 -17.5 -34t-44.5 -15q-30 0 -47.5 15t-17.5 34v25zM322 768q0 19 17.5 34t47.5 15q27 0 44.5 -15t17.5 -34v-25q0 -19 -17.5 -34t-44.5 -15q-30 0 -47.5 15t-17.5 34v25z" horiz-adv-x="520" unicode="Ë"/><glyph d="M0 0zM75 603q0 18 16 32.5t44 14.5q25 0 41 -14.5t16 -32.5v-565q0 -18 -16 -32.5t-41 -14.5q-28 0 -44 14.5t-16 32.5v565zM-32 775q-21 9 -25 29t4.5 38t25.5 28t38 1l141 -75q17 -9 21.5 -24t-2.5 -31q-8 -16 -24.5 -21.5t-27.5 -0.5z" horiz-adv-x="267" unicode="Ì"/><glyph d="M75 0zM75 603q0 18 16 32.5t44 14.5q25 0 41 -14.5t16 -32.5v-565q0 -18 -16 -32.5t-41 -14.5q-28 0 -44 14.5t-16 32.5v565zM143 721q-12 -5 -27.5 2.5t-23.5 23.5t-2.5 31.5t16.5 20.5l141 75q21 9 39 -1.5t26.5 -28.5t5 -38t-24.5 -29z" horiz-adv-x="267" unicode="Í"/><glyph d="M0 0zM75 603q0 18 16 32.5t44 14.5q25 0 41 -14.5t16 -32.5v-565q0 -18 -16 -32.5t-41 -14.5q-28 0 -44 14.5t-16 32.5v565zM27 710q-14 -5 -27 0t-20.5 16t-8 25.5t11.5 26.5l131 88q12 6 21.5 7t22.5 -4l123 -87q15 -12 16 -27.5t-7.5 -27.5t-23 -17t-29.5 4l-99 70z" horiz-adv-x="267" unicode="Î"/><glyph d="M0 0zM75 603q0 18 16 32.5t44 14.5q25 0 41 -14.5t16 -32.5v-565q0 -18 -16 -32.5t-41 -14.5q-28 0 -44 14.5t-16 32.5v565zM-39 778q0 19 17.5 34t47.5 15q27 0 44.5 -15t17.5 -34v-25q0 -19 -17.5 -34t-44.5 -15q-30 0 -47.5 15t-17.5 34v25zM181 778q0 19 17.5 34 t47.5 15q27 0 44.5 -15t17.5 -34v-25q0 -19 -17.5 -34t-44.5 -15q-30 0 -47.5 15t-17.5 34v25z" horiz-adv-x="267" unicode="Ï"/><glyph d="M85 262h-23q-18 0 -32.5 14.5t-14.5 37.5q0 25 14.5 39.5t32.5 14.5h23v225q0 18 16 32.5t44 14.5h129q68 0 118 -21.5t82.5 -58t48 -86t15.5 -105.5v-111q0 -54 -15.5 -101t-48 -82t-82.5 -55t-118 -20h-129q-28 0 -44 14.5t-16 32.5v215zM202 262v-156h72q69 0 108 36 t39 105v132q0 73 -39 114t-108 41h-72v-166h78q28 0 42.5 -14.5t14.5 -39.5q0 -23 -14.5 -37.5t-42.5 -14.5h-78z" horiz-adv-x="603" unicode="Ð"/><glyph d="M75 0zM75 603q0 18 16.5 32.5t43.5 14.5q22 0 37 -11.5t19 -26.5l269 -393v384q0 18 16 32.5t44 14.5q25 0 40.5 -14.5t15.5 -32.5v-566q0 -18 -15.5 -32.5t-40.5 -14.5q-22 0 -36.5 8.5t-20.5 22.5l-3 5l-268 389v-378q0 -18 -15.5 -32.5t-41.5 -14.5q-27 0 -43.5 14.5 t-16.5 32.5v566zM238 752q-27 0 -37.5 -9t-16.5 -20.5t-12.5 -20.5t-24.5 -9q-22 0 -34 14t-12 34q0 26 10.5 46t28.5 34t41.5 21t48.5 7q29 0 51.5 -11t42 -23.5t37.5 -23.5t39 -11t29.5 9t14 19.5t12.5 19.5t27 10q19 0 31.5 -12t16.5 -29q3 -24 -7 -43.5t-27.5 -34 t-40.5 -22.5t-46 -8q-29 0 -50.5 10t-40.5 21.5t-38 21.5t-43 10z" horiz-adv-x="651" unicode="Ñ"/><glyph d="M65 0zM65 390q0 55 15 102.5t46 82.5t78.5 55t112.5 20q66 0 113.5 -20t79 -55t46.5 -82.5t15 -102.5v-140q0 -55 -15 -102.5t-46.5 -82.5t-79 -55t-113.5 -20q-65 0 -112.5 20t-78.5 55t-46 82.5t-15 102.5v140zM180 249q0 -82 37 -116.5t100 -34.5q65 0 101 34.5 t36 116.5v141q0 82 -36 116.5t-101 34.5q-63 0 -100 -34.5t-37 -116.5v-141zM151 774q-21 9 -25 29t4.5 38t25.5 28t38 1l141 -75q17 -9 21.5 -24t-2.5 -31q-8 -16 -24.5 -21.5t-27.5 -0.5z" horiz-adv-x="636" unicode="Ò"/><glyph d="M65 0zM65 390q0 55 15 102.5t46 82.5t78.5 55t112.5 20q66 0 113.5 -20t79 -55t46.5 -82.5t15 -102.5v-140q0 -55 -15 -102.5t-46.5 -82.5t-79 -55t-113.5 -20q-65 0 -112.5 20t-78.5 55t-46 82.5t-15 102.5v140zM180 249q0 -82 37 -116.5t100 -34.5q65 0 101 34.5 t36 116.5v141q0 82 -36 116.5t-101 34.5q-63 0 -100 -34.5t-37 -116.5v-141zM327 720q-12 -5 -27.5 2.5t-23.5 23.5t-2.5 31.5t16.5 20.5l141 75q21 9 39 -1.5t26.5 -28.5t5 -38t-24.5 -29z" horiz-adv-x="636" unicode="Ó"/><glyph d="M65 0zM65 390q0 55 15 102.5t46 82.5t78.5 55t112.5 20q66 0 113.5 -20t79 -55t46.5 -82.5t15 -102.5v-140q0 -55 -15 -102.5t-46.5 -82.5t-79 -55t-113.5 -20q-65 0 -112.5 20t-78.5 55t-46 82.5t-15 102.5v140zM180 249q0 -82 37 -116.5t100 -34.5q65 0 101 34.5 t36 116.5v141q0 82 -36 116.5t-101 34.5q-63 0 -100 -34.5t-37 -116.5v-141zM210 709q-14 -5 -27 0t-20.5 16t-8 25.5t11.5 26.5l131 88q12 6 21.5 7t22.5 -4l123 -87q15 -12 16 -27.5t-7.5 -27.5t-23 -17t-29.5 4l-99 70z" horiz-adv-x="636" unicode="Ô"/><glyph d="M65 0zM65 390q0 55 15 102.5t46 82.5t78.5 55t112.5 20q66 0 113.5 -20t79 -55t46.5 -82.5t15 -102.5v-140q0 -55 -15 -102.5t-46.5 -82.5t-79 -55t-113.5 -20q-65 0 -112.5 20t-78.5 55t-46 82.5t-15 102.5v140zM180 249q0 -82 37 -116.5t100 -34.5q65 0 101 34.5 t36 116.5v141q0 82 -36 116.5t-101 34.5q-63 0 -100 -34.5t-37 -116.5v-141zM250 761q-27 0 -37.5 -9t-16.5 -20.5t-12.5 -20.5t-24.5 -9q-22 0 -34 14t-12 34q0 26 10.5 46t28.5 34t41.5 21t48.5 7q29 0 51.5 -11t42 -23.5t37.5 -23.5t39 -11t29.5 9t14 19.5t12.5 19.5 t27 10q19 0 31.5 -12t16.5 -29q3 -24 -7 -43.5t-27.5 -34t-40.5 -22.5t-46 -8q-29 0 -50.5 10t-40.5 21.5t-38 21.5t-43 10z" horiz-adv-x="636" unicode="Õ"/><glyph d="M65 0zM65 390q0 55 15 102.5t46 82.5t78.5 55t112.5 20q66 0 113.5 -20t79 -55t46.5 -82.5t15 -102.5v-140q0 -55 -15 -102.5t-46.5 -82.5t-79 -55t-113.5 -20q-65 0 -112.5 20t-78.5 55t-46 82.5t-15 102.5v140zM180 249q0 -82 37 -116.5t100 -34.5q65 0 101 34.5 t36 116.5v141q0 82 -36 116.5t-101 34.5q-63 0 -100 -34.5t-37 -116.5v-141zM144 777q0 19 17.5 34t47.5 15q27 0 44.5 -15t17.5 -34v-25q0 -19 -17.5 -34t-44.5 -15q-30 0 -47.5 15t-17.5 34v25zM365 777q0 19 17.5 34t47.5 15q27 0 44.5 -15t17.5 -34v-25q0 -19 -17.5 -34 t-44.5 -15q-30 0 -47.5 15t-17.5 34v25z" horiz-adv-x="636" unicode="Ö"/><glyph d="M65 390q0 55 15 102.5t46 82.5t78.5 55t112.5 20q54 0 95.5 -13.5t71.5 -38.5l27 35q8 11 24 13.5t32 -8.5q14 -11 16.5 -26t-4.5 -26l-41 -53q33 -62 33 -143v-140q0 -55 -15 -102.5t-46.5 -82.5t-79 -55t-113.5 -20q-51 0 -91 12t-69 35l-33 -43q-8 -11 -23.5 -14 t-30.5 8t-18 26.5t5 27.5l44 57q-19 32 -27.5 70t-8.5 81v140zM180 249q0 -24 3 -43l232 302q-17 17 -42 25t-56 8q-63 0 -100 -34.5t-37 -116.5v-141zM454 390q0 8 -0.5 15.5t-1.5 15.5l-227 -296q33 -27 92 -27q65 0 101 34.5t36 116.5v141z" horiz-adv-x="636" unicode="Ø"/><glyph d="M73 0zM321 -10q-66 0 -113 19t-77 51t-44 75t-14 90v378q0 18 16.5 32.5t43.5 14.5q26 0 41.5 -14.5t15.5 -32.5v-377q0 -127 131 -127q130 0 130 127v377q0 18 16.5 32.5t41.5 14.5q27 0 43.5 -14.5t16.5 -32.5v-378q0 -47 -14 -90t-44 -75t-77 -51t-113 -19zM155 777 q-21 9 -25 29t4.5 38t25.5 28t38 1l141 -75q17 -9 21.5 -24t-2.5 -31q-8 -16 -24.5 -21.5t-27.5 -0.5z" horiz-adv-x="650" unicode="Ù"/><glyph d="M73 0zM321 -10q-66 0 -113 19t-77 51t-44 75t-14 90v378q0 18 16.5 32.5t43.5 14.5q26 0 41.5 -14.5t15.5 -32.5v-377q0 -127 131 -127q130 0 130 127v377q0 18 16.5 32.5t41.5 14.5q27 0 43.5 -14.5t16.5 -32.5v-378q0 -47 -14 -90t-44 -75t-77 -51t-113 -19zM331 723 q-12 -5 -27.5 2.5t-23.5 23.5t-2.5 31.5t16.5 20.5l141 75q21 9 39 -1.5t26.5 -28.5t5 -38t-24.5 -29z" horiz-adv-x="650" unicode="Ú"/><glyph d="M73 0zM321 -10q-66 0 -113 19t-77 51t-44 75t-14 90v378q0 18 16.5 32.5t43.5 14.5q26 0 41.5 -14.5t15.5 -32.5v-377q0 -127 131 -127q130 0 130 127v377q0 18 16.5 32.5t41.5 14.5q27 0 43.5 -14.5t16.5 -32.5v-378q0 -47 -14 -90t-44 -75t-77 -51t-113 -19zM214 712 q-14 -5 -27 0t-20.5 16t-8 25.5t11.5 26.5l131 88q12 6 21.5 7t22.5 -4l123 -87q15 -12 16 -27.5t-7.5 -27.5t-23 -17t-29.5 4l-99 70z" horiz-adv-x="650" unicode="Û"/><glyph d="M73 0zM321 -10q-66 0 -113 19t-77 51t-44 75t-14 90v378q0 18 16.5 32.5t43.5 14.5q26 0 41.5 -14.5t15.5 -32.5v-377q0 -127 131 -127q130 0 130 127v377q0 18 16.5 32.5t41.5 14.5q27 0 43.5 -14.5t16.5 -32.5v-378q0 -47 -14 -90t-44 -75t-77 -51t-113 -19zM148 780 q0 19 17.5 34t47.5 15q27 0 44.5 -15t17.5 -34v-25q0 -19 -17.5 -34t-44.5 -15q-30 0 -47.5 15t-17.5 34v25zM369 780q0 19 17.5 34t47.5 15q27 0 44.5 -15t17.5 -34v-25q0 -19 -17.5 -34t-44.5 -15q-30 0 -47.5 15t-17.5 34v25z" horiz-adv-x="650" unicode="Ü"/><glyph d="M27 0zM214 239l-181 331q-11 14 -6 34.5t26 33.5q23 14 45 10.5t33 -17.5l144 -283l145 283q11 14 33 17.5t45 -10.5q21 -13 25.5 -33.5t-5.5 -34.5l-188 -342v-190q0 -18 -15.5 -32.5t-40.5 -14.5q-28 0 -44 14.5t-16 32.5v201zM285 720q-12 -5 -27.5 2.5t-23.5 23.5 t-2.5 31.5t16.5 20.5l141 75q21 9 39 -1.5t26.5 -28.5t5 -38t-24.5 -29z" horiz-adv-x="550" unicode="Ý"/><glyph d="M73 593q0 18 16.5 32.5t43.5 14.5q26 0 41.5 -14.5t15.5 -32.5v-83h84q61 0 105 -15t72.5 -40.5t42 -60t13.5 -73.5v-11q0 -34 -12.5 -65.5t-40 -56t-72 -39t-108.5 -14.5h-84v-98q0 -18 -15.5 -32.5t-41.5 -14.5q-27 0 -43.5 17t-16.5 35v551zM190 410v-179h84 q62 0 89.5 22.5t27.5 51.5v23q0 34 -27.5 58t-89.5 24h-84z" horiz-adv-x="557" unicode="Þ"/><glyph d="M61 0zM446 -15q-25 0 -40.5 14.5t-15.5 32.5v16l-9 3q-9 -13 -19.5 -24t-25.5 -19.5t-35.5 -13t-50.5 -4.5q-48 0 -84 17.5t-59 45.5t-34.5 64t-11.5 74v88q0 42 15 83t44 74t73 53.5t103 20.5q55 0 95 -15t65.5 -41.5t37.5 -62.5t12 -79v-280q0 -18 -16 -32.5t-44 -14.5 zM390 310q0 50 -24.5 70.5t-69.5 20.5q-26 0 -47 -9.5t-36 -26t-23.5 -37.5t-8.5 -45v-96q0 -36 27 -62t67 -26q22 0 42.5 7.5t36.5 22t26 36.5t10 51v94zM119 642q-21 9 -25 29t4.5 38t25.5 28t38 1l141 -75q17 -9 21.5 -24t-2.5 -31q-8 -16 -24.5 -21.5t-27.5 -0.5z" unicode="à"/><glyph d="M61 0zM446 -15q-25 0 -40.5 14.5t-15.5 32.5v16l-9 3q-9 -13 -19.5 -24t-25.5 -19.5t-35.5 -13t-50.5 -4.5q-48 0 -84 17.5t-59 45.5t-34.5 64t-11.5 74v88q0 42 15 83t44 74t73 53.5t103 20.5q55 0 95 -15t65.5 -41.5t37.5 -62.5t12 -79v-280q0 -18 -16 -32.5t-44 -14.5 zM390 310q0 50 -24.5 70.5t-69.5 20.5q-26 0 -47 -9.5t-36 -26t-23.5 -37.5t-8.5 -45v-96q0 -36 27 -62t67 -26q22 0 42.5 7.5t36.5 22t26 36.5t10 51v94zM295 588q-12 -5 -27.5 2.5t-23.5 23.5t-2.5 31.5t16.5 20.5l141 75q21 9 39 -1.5t26.5 -28.5t5 -38t-24.5 -29z" unicode="á"/><glyph d="M61 0zM446 -15q-25 0 -40.5 14.5t-15.5 32.5v16l-9 3q-9 -13 -19.5 -24t-25.5 -19.5t-35.5 -13t-50.5 -4.5q-48 0 -84 17.5t-59 45.5t-34.5 64t-11.5 74v88q0 42 15 83t44 74t73 53.5t103 20.5q55 0 95 -15t65.5 -41.5t37.5 -62.5t12 -79v-280q0 -18 -16 -32.5t-44 -14.5 zM390 310q0 50 -24.5 70.5t-69.5 20.5q-26 0 -47 -9.5t-36 -26t-23.5 -37.5t-8.5 -45v-96q0 -36 27 -62t67 -26q22 0 42.5 7.5t36.5 22t26 36.5t10 51v94zM179 577q-14 -5 -27 0t-20.5 16t-8 25.5t11.5 26.5l131 88q12 6 21.5 7t22.5 -4l123 -87q15 -12 16 -27.5t-7.5 -27.5 t-23 -17t-29.5 4l-99 70z" unicode="â"/><glyph d="M61 0zM446 -15q-25 0 -40.5 14.5t-15.5 32.5v16l-9 3q-9 -13 -19.5 -24t-25.5 -19.5t-35.5 -13t-50.5 -4.5q-48 0 -84 17.5t-59 45.5t-34.5 64t-11.5 74v88q0 42 15 83t44 74t73 53.5t103 20.5q55 0 95 -15t65.5 -41.5t37.5 -62.5t12 -79v-280q0 -18 -16 -32.5t-44 -14.5 zM390 310q0 50 -24.5 70.5t-69.5 20.5q-26 0 -47 -9.5t-36 -26t-23.5 -37.5t-8.5 -45v-96q0 -36 27 -62t67 -26q22 0 42.5 7.5t36.5 22t26 36.5t10 51v94zM219 629q-27 0 -37.5 -9t-16.5 -20.5t-12.5 -20.5t-24.5 -9q-22 0 -34 14t-12 34q0 26 10.5 46t28.5 34t41.5 21 t48.5 7q29 0 51.5 -11t42 -23.5t37.5 -23.5t39 -11t29.5 9t14 19.5t12.5 19.5t27 10q19 0 31.5 -12t16.5 -29q3 -24 -7 -43.5t-27.5 -34t-40.5 -22.5t-46 -8q-29 0 -50.5 10t-40.5 21.5t-38 21.5t-43 10z" unicode="ã"/><glyph d="M61 0zM446 -15q-25 0 -40.5 14.5t-15.5 32.5v16l-9 3q-9 -13 -19.5 -24t-25.5 -19.5t-35.5 -13t-50.5 -4.5q-48 0 -84 17.5t-59 45.5t-34.5 64t-11.5 74v88q0 42 15 83t44 74t73 53.5t103 20.5q55 0 95 -15t65.5 -41.5t37.5 -62.5t12 -79v-280q0 -18 -16 -32.5t-44 -14.5 zM390 310q0 50 -24.5 70.5t-69.5 20.5q-26 0 -47 -9.5t-36 -26t-23.5 -37.5t-8.5 -45v-96q0 -36 27 -62t67 -26q22 0 42.5 7.5t36.5 22t26 36.5t10 51v94zM112 645q0 19 17.5 34t47.5 15q27 0 44.5 -15t17.5 -34v-25q0 -19 -17.5 -34t-44.5 -15q-30 0 -47.5 15t-17.5 34v25z M333 645q0 19 17.5 34t47.5 15q27 0 44.5 -15t17.5 -34v-25q0 -19 -17.5 -34t-44.5 -15q-30 0 -47.5 15t-17.5 34v25z" unicode="ä"/><glyph d="M61 0zM446 -15q-25 0 -40.5 14.5t-15.5 32.5v16l-9 3q-9 -13 -19.5 -24t-25.5 -19.5t-35.5 -13t-50.5 -4.5q-48 0 -84 17.5t-59 45.5t-34.5 64t-11.5 74v88q0 42 15 83t44 74t73 53.5t103 20.5q55 0 95 -15t65.5 -41.5t37.5 -62.5t12 -79v-280q0 -18 -16 -32.5t-44 -14.5 zM390 310q0 50 -24.5 70.5t-69.5 20.5q-26 0 -47 -9.5t-36 -26t-23.5 -37.5t-8.5 -45v-96q0 -36 27 -62t67 -26q22 0 42.5 7.5t36.5 22t26 36.5t10 51v94zM180 672q0 21 8.5 39.5t22.5 32t33.5 21.5t41.5 8q21 0 40 -8t33 -21.5t22.5 -32t8.5 -39.5q0 -20 -8.5 -38 t-22.5 -31.5t-33 -21.5t-40 -8q-22 0 -41.5 8t-33.5 21.5t-22.5 31.5t-8.5 38zM242 672q0 -17 13 -28.5t31 -11.5t30 11.5t12 28.5t-12 29.5t-30 12.5t-31 -12.5t-13 -29.5z" unicode="å"/><glyph d="M55 292q0 45 12.5 84.5t39.5 69.5t69 47t101 17q51 0 88 -13.5t60 -36.5q13 -13 14 -32.5t-8.5 -34.5t-29 -21t-47.5 8q-15 8 -33 14.5t-44 6.5q-52 0 -78 -31t-26 -84v-72q0 -53 26 -84t78 -31q26 0 47 5.5t33 12.5q21 11 39.5 7.5t29.5 -16t13 -30t-11 -35.5 q-14 -20 -41.5 -32t-61.5 -17q9 -17 14.5 -36t3.5 -39q-2 -28 -20.5 -48t-45 -29.5t-58 -7t-59.5 19.5q-14 9 -17.5 23t1.5 25.5t17 17t29 -1.5q13 -6 25.5 -9.5t23 -3t17.5 6t10 16.5q4 14 1.5 28.5t-12.5 34.5q-53 3 -91 21.5t-62 47.5t-35.5 67t-11.5 81v84z" horiz-adv-x="470" unicode="ç"/><glyph d="M53 0zM484 307q0 -47 -18 -66t-60 -19h-237v-26q0 -48 29.5 -77t83.5 -29q27 0 49.5 3.5t35.5 9.5q14 7 27 14t24 7q20 0 31 -12t12 -31q0 -16 -14 -32t-38 -29t-56.5 -21.5t-69.5 -8.5q-51 0 -93 16t-72.5 43t-47.5 63.5t-17 77.5v106q0 44 16.5 83t45.5 68t69 46t88 17 q57 0 97 -18.5t65.5 -48t37.5 -65.5t12 -71zM271 413q-45 0 -71.5 -28.5t-30.5 -75.5h204v15q0 41 -28.5 65t-73.5 24zM98 637q-21 9 -25 29t4.5 38t25.5 28t38 1l141 -75q17 -9 21.5 -24t-2.5 -31q-8 -16 -24.5 -21.5t-27.5 -0.5z" horiz-adv-x="537" unicode="è"/><glyph d="M53 0zM484 307q0 -47 -18 -66t-60 -19h-237v-26q0 -48 29.5 -77t83.5 -29q27 0 49.5 3.5t35.5 9.5q14 7 27 14t24 7q20 0 31 -12t12 -31q0 -16 -14 -32t-38 -29t-56.5 -21.5t-69.5 -8.5q-51 0 -93 16t-72.5 43t-47.5 63.5t-17 77.5v106q0 44 16.5 83t45.5 68t69 46t88 17 q57 0 97 -18.5t65.5 -48t37.5 -65.5t12 -71zM271 413q-45 0 -71.5 -28.5t-30.5 -75.5h204v15q0 41 -28.5 65t-73.5 24zM274 583q-12 -5 -27.5 2.5t-23.5 23.5t-2.5 31.5t16.5 20.5l141 75q21 9 39 -1.5t26.5 -28.5t5 -38t-24.5 -29z" horiz-adv-x="537" unicode="é"/><glyph d="M53 0zM484 307q0 -47 -18 -66t-60 -19h-237v-26q0 -48 29.5 -77t83.5 -29q27 0 49.5 3.5t35.5 9.5q14 7 27 14t24 7q20 0 31 -12t12 -31q0 -16 -14 -32t-38 -29t-56.5 -21.5t-69.5 -8.5q-51 0 -93 16t-72.5 43t-47.5 63.5t-17 77.5v106q0 44 16.5 83t45.5 68t69 46t88 17 q57 0 97 -18.5t65.5 -48t37.5 -65.5t12 -71zM271 413q-45 0 -71.5 -28.5t-30.5 -75.5h204v15q0 41 -28.5 65t-73.5 24zM158 572q-14 -5 -27 0t-20.5 16t-8 25.5t11.5 26.5l131 88q12 6 21.5 7t22.5 -4l123 -87q15 -12 16 -27.5t-7.5 -27.5t-23 -17t-29.5 4l-99 70z" horiz-adv-x="537" unicode="ê"/><glyph d="M53 0zM484 307q0 -47 -18 -66t-60 -19h-237v-26q0 -48 29.5 -77t83.5 -29q27 0 49.5 3.5t35.5 9.5q14 7 27 14t24 7q20 0 31 -12t12 -31q0 -16 -14 -32t-38 -29t-56.5 -21.5t-69.5 -8.5q-51 0 -93 16t-72.5 43t-47.5 63.5t-17 77.5v106q0 44 16.5 83t45.5 68t69 46t88 17 q57 0 97 -18.5t65.5 -48t37.5 -65.5t12 -71zM271 413q-45 0 -71.5 -28.5t-30.5 -75.5h204v15q0 41 -28.5 65t-73.5 24zM91 640q0 19 17.5 34t47.5 15q27 0 44.5 -15t17.5 -34v-25q0 -19 -17.5 -34t-44.5 -15q-30 0 -47.5 15t-17.5 34v25zM312 640q0 19 17.5 34t47.5 15 q27 0 44.5 -15t17.5 -34v-25q0 -19 -17.5 -34t-44.5 -15q-30 0 -47.5 15t-17.5 34v25z" horiz-adv-x="537" unicode="ë"/><glyph d="M0 0zM73 471q0 18 16.5 32.5t43.5 14.5q26 0 41.5 -14.5t15.5 -32.5v-433q0 -18 -15.5 -32.5t-41.5 -14.5q-27 0 -43.5 14.5t-16.5 32.5v433zM-34 647q-21 9 -25 29t4.5 38t25.5 28t38 1l141 -75q17 -9 21.5 -24t-2.5 -31q-8 -16 -24.5 -21.5t-27.5 -0.5z" horiz-adv-x="264" unicode="ì"/><glyph d="M73 0zM73 471q0 18 16.5 32.5t43.5 14.5q26 0 41.5 -14.5t15.5 -32.5v-433q0 -18 -15.5 -32.5t-41.5 -14.5q-27 0 -43.5 14.5t-16.5 32.5v433zM141 593q-12 -5 -27.5 2.5t-23.5 23.5t-2.5 31.5t16.5 20.5l141 75q21 9 39 -1.5t26.5 -28.5t5 -38t-24.5 -29z" horiz-adv-x="264" unicode="í"/><glyph d="M0 0zM73 471q0 18 16.5 32.5t43.5 14.5q26 0 41.5 -14.5t15.5 -32.5v-433q0 -18 -15.5 -32.5t-41.5 -14.5q-27 0 -43.5 14.5t-16.5 32.5v433zM25 582q-14 -5 -27 0t-20.5 16t-8 25.5t11.5 26.5l131 88q12 6 21.5 7t22.5 -4l123 -87q15 -12 16 -27.5t-7.5 -27.5t-23 -17 t-29.5 4l-99 70z" horiz-adv-x="264" unicode="î"/><glyph d="M0 0zM73 471q0 18 16.5 32.5t43.5 14.5q26 0 41.5 -14.5t15.5 -32.5v-433q0 -18 -15.5 -32.5t-41.5 -14.5q-27 0 -43.5 14.5t-16.5 32.5v433zM-41 650q0 19 17.5 34t47.5 15q27 0 44.5 -15t17.5 -34v-25q0 -19 -17.5 -34t-44.5 -15q-30 0 -47.5 15t-17.5 34v25zM179 650 q0 19 17.5 34t47.5 15q27 0 44.5 -15t17.5 -34v-25q0 -19 -17.5 -34t-44.5 -15q-30 0 -47.5 15t-17.5 34v25z" horiz-adv-x="264" unicode="ï"/><glyph d="M237 564q-14 5 -27 8t-26 5q-23 3 -41 15.5t-18 37.5q0 13 5.5 22.5t14 15.5t18.5 9t19 3q37 0 75.5 -10t74.5 -28l49 40q33 25 56 -5q11 -13 10 -27.5t-17 -26.5l-31 -25q48 -40 78 -95t30 -122v-124q0 -53 -13.5 -101t-42 -84t-72.5 -57t-106 -21q-58 -2 -100 18 t-69 51t-39.5 69t-12.5 73v19q0 43 12.5 80t36.5 64t59 43t79 16q50 0 85.5 -15t59.5 -38l7 3v11q0 42 -22.5 77t-56.5 61l-67 -55q-11 -8 -25.5 -7t-25.5 14q-11 14 -9.5 28.5t11.5 24.5zM274 99q51 0 80.5 29t35.5 92q-1 26 -11 46.5t-26 34.5t-36.5 21.5t-42.5 7.5 q-51 0 -77.5 -28.5t-26.5 -73.5v-27q0 -20 6.5 -38.5t20 -32.5t32.5 -22.5t45 -8.5z" horiz-adv-x="560" unicode="ð"/><glyph d="M70 0zM292 510q55 0 96.5 -15t69.5 -42.5t42 -66.5t14 -86v-263q0 -18 -17 -32.5t-43 -14.5t-42 14.5t-16 32.5v257q0 55 -29.5 81t-74.5 26t-75 -26t-30 -81v-257q0 -18 -15.5 -32.5t-41.5 -14.5q-27 0 -43.5 14.5t-16.5 32.5v253q0 47 14 87.5t42 70t69.5 46t96.5 16.5 zM225 632q-27 0 -37.5 -9t-16.5 -20.5t-12.5 -20.5t-24.5 -9q-22 0 -34 14t-12 34q0 26 10.5 46t28.5 34t41.5 21t48.5 7q29 0 51.5 -11t42 -23.5t37.5 -23.5t39 -11t29.5 9t14 19.5t12.5 19.5t27 10q19 0 31.5 -12t16.5 -29q3 -24 -7 -43.5t-27.5 -34t-40.5 -22.5t-46 -8 q-29 0 -50.5 10t-40.5 21.5t-38 21.5t-43 10z" horiz-adv-x="584" unicode="ñ"/><glyph d="M55 0zM55 281q0 47 13.5 88.5t41 73t70.5 49.5t102 18q58 0 101 -18t71 -49.5t41.5 -73t13.5 -88.5v-69q0 -45 -13.5 -85t-41.5 -70t-71 -47.5t-101 -17.5q-59 0 -102 17.5t-70.5 47.5t-41 70t-13.5 85v69zM173 211q0 -55 29 -85t80 -30t80 30t29 85v72q0 60 -29 91 t-80 31t-80 -31t-29 -91v-72zM116 637q-21 9 -25 29t4.5 38t25.5 28t38 1l141 -75q17 -9 21.5 -24t-2.5 -31q-8 -16 -24.5 -21.5t-27.5 -0.5z" horiz-adv-x="564" unicode="ò"/><glyph d="M55 0zM55 281q0 47 13.5 88.5t41 73t70.5 49.5t102 18q58 0 101 -18t71 -49.5t41.5 -73t13.5 -88.5v-69q0 -45 -13.5 -85t-41.5 -70t-71 -47.5t-101 -17.5q-59 0 -102 17.5t-70.5 47.5t-41 70t-13.5 85v69zM173 211q0 -55 29 -85t80 -30t80 30t29 85v72q0 60 -29 91 t-80 31t-80 -31t-29 -91v-72zM292 583q-12 -5 -27.5 2.5t-23.5 23.5t-2.5 31.5t16.5 20.5l141 75q21 9 39 -1.5t26.5 -28.5t5 -38t-24.5 -29z" horiz-adv-x="564" unicode="ó"/><glyph d="M55 0zM55 281q0 47 13.5 88.5t41 73t70.5 49.5t102 18q58 0 101 -18t71 -49.5t41.5 -73t13.5 -88.5v-69q0 -45 -13.5 -85t-41.5 -70t-71 -47.5t-101 -17.5q-59 0 -102 17.5t-70.5 47.5t-41 70t-13.5 85v69zM173 211q0 -55 29 -85t80 -30t80 30t29 85v72q0 60 -29 91 t-80 31t-80 -31t-29 -91v-72zM176 572q-14 -5 -27 0t-20.5 16t-8 25.5t11.5 26.5l131 88q12 6 21.5 7t22.5 -4l123 -87q15 -12 16 -27.5t-7.5 -27.5t-23 -17t-29.5 4l-99 70z" horiz-adv-x="564" unicode="ô"/><glyph d="M55 0zM55 281q0 47 13.5 88.5t41 73t70.5 49.5t102 18q58 0 101 -18t71 -49.5t41.5 -73t13.5 -88.5v-69q0 -45 -13.5 -85t-41.5 -70t-71 -47.5t-101 -17.5q-59 0 -102 17.5t-70.5 47.5t-41 70t-13.5 85v69zM173 211q0 -55 29 -85t80 -30t80 30t29 85v72q0 60 -29 91 t-80 31t-80 -31t-29 -91v-72zM216 624q-27 0 -37.5 -9t-16.5 -20.5t-12.5 -20.5t-24.5 -9q-22 0 -34 14t-12 34q0 26 10.5 46t28.5 34t41.5 21t48.5 7q29 0 51.5 -11t42 -23.5t37.5 -23.5t39 -11t29.5 9t14 19.5t12.5 19.5t27 10q19 0 31.5 -12t16.5 -29q3 -24 -7 -43.5 t-27.5 -34t-40.5 -22.5t-46 -8q-29 0 -50.5 10t-40.5 21.5t-38 21.5t-43 10z" horiz-adv-x="564" unicode="õ"/><glyph d="M55 0zM55 281q0 47 13.5 88.5t41 73t70.5 49.5t102 18q58 0 101 -18t71 -49.5t41.5 -73t13.5 -88.5v-69q0 -45 -13.5 -85t-41.5 -70t-71 -47.5t-101 -17.5q-59 0 -102 17.5t-70.5 47.5t-41 70t-13.5 85v69zM173 211q0 -55 29 -85t80 -30t80 30t29 85v72q0 60 -29 91 t-80 31t-80 -31t-29 -91v-72zM109 640q0 19 17.5 34t47.5 15q27 0 44.5 -15t17.5 -34v-25q0 -19 -17.5 -34t-44.5 -15q-30 0 -47.5 15t-17.5 34v25zM330 640q0 19 17.5 34t47.5 15q27 0 44.5 -15t17.5 -34v-25q0 -19 -17.5 -34t-44.5 -15q-30 0 -47.5 15t-17.5 34v25z" horiz-adv-x="564" unicode="ö"/><glyph d="M42 55zM200 441q0 19 17.5 34t47.5 15q27 0 44.5 -15t17.5 -34v-25q0 -19 -17.5 -34t-44.5 -15q-30 0 -47.5 15t-17.5 34v25zM200 129q0 19 17.5 34t47.5 15q27 0 44.5 -15t17.5 -34v-25q0 -19 -17.5 -34t-44.5 -15q-30 0 -47.5 15t-17.5 34v25zM425 328q28 0 42.5 -14.5 t14.5 -39.5q0 -23 -14.5 -37.5t-42.5 -14.5h-335q-18 0 -33 14.5t-15 37.5q0 25 15 39.5t33 14.5h335z" horiz-adv-x="524" unicode="÷"/><glyph d="M63 281q0 47 13.5 88.5t41 73t70.5 49.5t102 18q42 0 76.5 -10t60.5 -27l24 30q8 11 24 13.5t32 -8.5q14 -11 16.5 -26t-4.5 -26l-35 -44q33 -57 33 -131v-69q0 -45 -13.5 -85t-41.5 -70t-71 -47.5t-101 -17.5q-70 0 -120 25l-26 -33q-8 -11 -23.5 -14t-30.5 8t-18 26.5 t5 27.5l30 37q-23 29 -33.5 65.5t-10.5 77.5v69zM181 211q0 -11 1 -21.5t4 -20.5l171 216q-26 20 -67 20q-51 0 -80 -31t-29 -91v-72zM399 283q0 5 -0.5 10.5t-0.5 10.5l-158 -199q22 -9 50 -9q51 0 80 30t29 85v72z" unicode="ø"/><glyph d="M70 0zM292 -10q-55 0 -96.5 16.5t-69.5 46t-42 70t-14 87.5v252q0 18 16.5 32.5t43.5 14.5q26 0 41.5 -14.5t15.5 -32.5v-256q0 -55 30 -81t75 -26t74.5 26t29.5 81v256q0 18 16 32.5t42 14.5t43 -14.5t17 -32.5v-252q0 -47 -14 -87.5t-42 -70t-69.5 -46t-96.5 -16.5z M126 644q-21 9 -25 29t4.5 38t25.5 28t38 1l141 -75q17 -9 21.5 -24t-2.5 -31q-8 -16 -24.5 -21.5t-27.5 -0.5z" horiz-adv-x="584" unicode="ù"/><glyph d="M70 0zM292 -10q-55 0 -96.5 16.5t-69.5 46t-42 70t-14 87.5v252q0 18 16.5 32.5t43.5 14.5q26 0 41.5 -14.5t15.5 -32.5v-256q0 -55 30 -81t75 -26t74.5 26t29.5 81v256q0 18 16 32.5t42 14.5t43 -14.5t17 -32.5v-252q0 -47 -14 -87.5t-42 -70t-69.5 -46t-96.5 -16.5z M302 590q-12 -5 -27.5 2.5t-23.5 23.5t-2.5 31.5t16.5 20.5l141 75q21 9 39 -1.5t26.5 -28.5t5 -38t-24.5 -29z" horiz-adv-x="584" unicode="ú"/><glyph d="M70 0zM292 -10q-55 0 -96.5 16.5t-69.5 46t-42 70t-14 87.5v252q0 18 16.5 32.5t43.5 14.5q26 0 41.5 -14.5t15.5 -32.5v-256q0 -55 30 -81t75 -26t74.5 26t29.5 81v256q0 18 16 32.5t42 14.5t43 -14.5t17 -32.5v-252q0 -47 -14 -87.5t-42 -70t-69.5 -46t-96.5 -16.5z M186 579q-14 -5 -27 0t-20.5 16t-8 25.5t11.5 26.5l131 88q12 6 21.5 7t22.5 -4l123 -87q15 -12 16 -27.5t-7.5 -27.5t-23 -17t-29.5 4l-99 70z" horiz-adv-x="584" unicode="û"/><glyph d="M70 0zM292 -10q-55 0 -96.5 16.5t-69.5 46t-42 70t-14 87.5v252q0 18 16.5 32.5t43.5 14.5q26 0 41.5 -14.5t15.5 -32.5v-256q0 -55 30 -81t75 -26t74.5 26t29.5 81v256q0 18 16 32.5t42 14.5t43 -14.5t17 -32.5v-252q0 -47 -14 -87.5t-42 -70t-69.5 -46t-96.5 -16.5z M119 647q0 19 17.5 34t47.5 15q27 0 44.5 -15t17.5 -34v-25q0 -19 -17.5 -34t-44.5 -15q-30 0 -47.5 15t-17.5 34v25zM340 647q0 19 17.5 34t47.5 15q27 0 44.5 -15t17.5 -34v-25q0 -19 -17.5 -34t-44.5 -15q-30 0 -47.5 15t-17.5 34v25z" horiz-adv-x="584" unicode="ü"/><glyph d="M73 0zM386 468q-1 15 15.5 29t43.5 14q26 0 42 -14.5t16 -32.5v-499q-1 -48 -17.5 -83.5t-45 -58t-67 -33.5t-81.5 -11q-49 0 -78 4t-43 9q-33 21 -33 51q0 22 14 35t42 13q11 0 37 -4t61 -4q47 0 70.5 21.5t23.5 60.5v76l-5 2q-22 -26 -50.5 -39t-71.5 -13 q-55 0 -91 15.5t-57 43.5t-29.5 66.5t-8.5 84.5v263q0 18 17 32.5t43 14.5t42 -14.5t16 -32.5v-267q0 -47 21 -72t73 -25q36 0 63.5 17.5t37.5 54.5v296v0zM298 588q-12 -5 -27.5 2.5t-23.5 23.5t-2.5 31.5t16.5 20.5l141 75q21 9 39 -1.5t26.5 -28.5t5 -38t-24.5 -29z" horiz-adv-x="576" unicode="ý"/><glyph d="M190 42v-215q0 -18 -15.5 -32.5t-41.5 -14.5q-27 0 -43.5 14.5t-16.5 32.5v807q0 18 15.5 32.5t41.5 14.5q27 0 43.5 -14.5t16.5 -32.5v-171l7 -3q21 24 53 37t65 13q53 0 93 -18.5t66.5 -50t39.5 -73t13 -88.5v-59q0 -47 -12 -88.5t-37 -73t-64 -50t-94 -18.5 q-41 0 -70.5 14.5t-51.5 38.5zM190 207q0 -55 30 -81t75 -26q51 0 82.5 32t31.5 85v67q0 53 -31.5 85t-82.5 32q-45 0 -75 -21t-30 -66v-107z" horiz-adv-x="582" unicode="þ"/><glyph d="M73 0zM386 468q-1 15 15.5 29t43.5 14q26 0 42 -14.5t16 -32.5v-499q-1 -48 -17.5 -83.5t-45 -58t-67 -33.5t-81.5 -11q-49 0 -78 4t-43 9q-33 21 -33 51q0 22 14 35t42 13q11 0 37 -4t61 -4q47 0 70.5 21.5t23.5 60.5v76l-5 2q-22 -26 -50.5 -39t-71.5 -13 q-55 0 -91 15.5t-57 43.5t-29.5 66.5t-8.5 84.5v263q0 18 17 32.5t43 14.5t42 -14.5t16 -32.5v-267q0 -47 21 -72t73 -25q36 0 63.5 17.5t37.5 54.5v296v0zM115 645q0 19 17.5 34t47.5 15q27 0 44.5 -15t17.5 -34v-25q0 -19 -17.5 -34t-44.5 -15q-30 0 -47.5 15t-17.5 34v25 zM336 645q0 19 17.5 34t47.5 15q27 0 44.5 -15t17.5 -34v-25q0 -19 -17.5 -34t-44.5 -15q-30 0 -47.5 15t-17.5 34v25z" horiz-adv-x="576" unicode="ÿ"/><glyph d="M73 471q0 18 16.5 32.5t43.5 14.5q26 0 41.5 -14.5t15.5 -32.5v-433q0 -18 -15.5 -32.5t-41.5 -14.5q-27 0 -43.5 14.5t-16.5 32.5v433z" horiz-adv-x="264" unicode="ı"/><glyph d="M27 0zM214 239l-181 331q-11 14 -6 34.5t26 33.5q23 14 45 10.5t33 -17.5l144 -283l145 283q11 14 33 17.5t45 -10.5q21 -13 25.5 -33.5t-5.5 -34.5l-188 -342v-190q0 -18 -15.5 -32.5t-40.5 -14.5q-28 0 -44 14.5t-16 32.5v201zM102 777q0 19 17.5 34t47.5 15 q27 0 44.5 -15t17.5 -34v-25q0 -19 -17.5 -34t-44.5 -15q-30 0 -47.5 15t-17.5 34v25zM323 777q0 19 17.5 34t47.5 15q27 0 44.5 -15t17.5 -34v-25q0 -19 -17.5 -34t-44.5 -15q-30 0 -47.5 15t-17.5 34v25z" horiz-adv-x="550" unicode="Ÿ"/><glyph d="M209 516q-14 -5 -27 0t-20.5 16t-8 25.5t11.5 26.5l131 88q12 6 21.5 7t22.5 -4l123 -87q15 -12 16 -27.5t-7.5 -27.5t-23 -17t-29.5 4l-99 70z" horiz-adv-x="639" unicode="ˆ"/><glyph d="M21 635q0 21 8.5 39.5t22.5 32t33.5 21.5t41.5 8q21 0 40 -8t33 -21.5t22.5 -32t8.5 -39.5q0 -20 -8.5 -38t-22.5 -31.5t-33 -21.5t-40 -8q-22 0 -41.5 8t-33.5 21.5t-22.5 31.5t-8.5 38zM83 635q0 -17 13 -28.5t31 -11.5t30 11.5t12 28.5t-12 29.5t-30 12.5t-31 -12.5 t-13 -29.5z" horiz-adv-x="235" unicode="˚"/><glyph d="M223 530q-27 0 -37.5 -9t-16.5 -20.5t-12.5 -20.5t-24.5 -9q-22 0 -34 14t-12 34q0 26 10.5 46t28.5 34t41.5 21t48.5 7q29 0 51.5 -11t42 -23.5t37.5 -23.5t39 -11t29.5 9t14 19.5t12.5 19.5t27 10q19 0 31.5 -12t16.5 -29q3 -24 -7 -43.5t-27.5 -34t-40.5 -22.5t-46 -8 q-29 0 -50.5 10t-40.5 21.5t-38 21.5t-43 10z" horiz-adv-x="590" unicode="˜"/><glyph horiz-adv-x="452"/><glyph horiz-adv-x="905"/><glyph horiz-adv-x="452"/><glyph horiz-adv-x="905"/><glyph horiz-adv-x="301"/><glyph horiz-adv-x="226"/><glyph horiz-adv-x="150"/><glyph horiz-adv-x="150"/><glyph horiz-adv-x="113"/><glyph horiz-adv-x="181"/><glyph horiz-adv-x="50"/><glyph d="M309 347q28 0 42.5 -14.5t14.5 -39.5q0 -23 -14.5 -37.5t-42.5 -14.5h-178q-18 0 -32.5 14.5t-14.5 37.5q0 25 14.5 39.5t32.5 14.5h178z" horiz-adv-x="446" unicode="‐"/><glyph d="M309 347q28 0 42.5 -14.5t14.5 -39.5q0 -23 -14.5 -37.5t-42.5 -14.5h-178q-18 0 -32.5 14.5t-14.5 37.5q0 25 14.5 39.5t32.5 14.5h178z" horiz-adv-x="446" unicode="‑"/><glyph d="M309 347q28 0 42.5 -14.5t14.5 -39.5q0 -23 -14.5 -37.5t-42.5 -14.5h-178q-18 0 -32.5 14.5t-14.5 37.5q0 25 14.5 39.5t32.5 14.5h178z" horiz-adv-x="446" unicode="‒"/><glyph d="M435 347q28 0 42.5 -14.5t14.5 -39.5q0 -23 -14.5 -37.5t-42.5 -14.5h-335q-18 0 -33 14.5t-15 37.5q0 25 15 39.5t33 14.5h335z" horiz-adv-x="545" unicode="–"/><glyph d="M613 347q29 0 43.5 -14.5t14.5 -39.5q0 -23 -14.5 -37.5t-43.5 -14.5h-513q-18 0 -33 14.5t-15 37.5q0 25 15 39.5t33 14.5h513z" horiz-adv-x="723" unicode="—"/><glyph d="M146 447q0 -32 -19.5 -44.5t-41.5 -12.5t-38 9.5t-16 38.5q0 70 25.5 122.5t86.5 85.5q26 10 44.5 2.5t26 -22.5t2 -33.5t-28.5 -31.5q-27 -17 -34 -48t-7 -66z" horiz-adv-x="250" unicode="‘"/><glyph d="M104 595q0 32 19 44.5t42 12.5q22 0 37.5 -9.5t15.5 -38.5q0 -70 -25 -122.5t-86 -85.5q-26 -10 -44.5 -2.5t-26 22.5t-2 33.5t28.5 31.5q26 17 33.5 48t7.5 66z" horiz-adv-x="250" unicode="’"/><glyph d="M34 0zM104 80q0 32 19 44.5t42 12.5q22 0 37.5 -9.5t15.5 -38.5q0 -70 -25 -122.5t-86 -85.5q-26 -10 -44.5 -2.5t-26 22.5t-2 33.5t28.5 31.5q26 17 33.5 48t7.5 66z" horiz-adv-x="250" unicode="‚"/><glyph d="M31 390zM146 447q0 -32 -19.5 -44.5t-41.5 -12.5t-38 9.5t-16 38.5q0 70 25.5 122.5t86.5 85.5q26 10 44.5 2.5t26 -22.5t2 -33.5t-28.5 -31.5q-27 -17 -34 -48t-7 -66zM338 447q0 -32 -19.5 -44.5t-41.5 -12.5t-38 9.5t-16 38.5q0 70 25.5 122.5t86.5 85.5 q26 10 44.5 2.5t26 -22.5t2 -33.5t-28.5 -31.5q-27 -17 -34 -48t-7 -66z" horiz-adv-x="432" unicode="“"/><glyph d="M34 393zM104 595q0 32 19 44.5t42 12.5q22 0 37.5 -9.5t15.5 -38.5q0 -70 -25 -122.5t-86 -85.5q-26 -10 -44.5 -2.5t-26 22.5t-2 33.5t28.5 31.5q26 17 33.5 48t7.5 66zM283 595q0 32 19 44.5t42 12.5q22 0 37.5 -9.5t15.5 -38.5q0 -70 -25 -122.5t-86 -85.5 q-26 -10 -44.5 -2.5t-26 22.5t-2 33.5t28.5 31.5q26 17 33.5 48t7.5 66z" horiz-adv-x="419" unicode="”"/><glyph d="M34 0zM104 66q0 32 19 44.5t42 12.5q22 0 37.5 -9.5t15.5 -38.5q0 -70 -25 -122.5t-86 -85.5q-26 -10 -44.5 -2.5t-26 22.5t-2 33.5t28.5 31.5q26 17 33.5 48t7.5 66zM273 66q0 32 19 44.5t42 12.5q22 0 37.5 -9.5t15.5 -38.5q0 -70 -25 -122.5t-86 -85.5 q-26 -10 -44.5 -2.5t-26 22.5t-2 33.5t28.5 31.5q26 17 33.5 48t7.5 66z" horiz-adv-x="419" unicode="„"/><glyph d="M32 310zM32.0898 430.543q0 30.7393 28.3467 55.0068q28.3467 24.2686 76.9404 24.2686q43.7354 0 72.082 -24.2686q28.3467 -24.2676 28.3467 -55.0068v-40.4463q0 -30.7393 -28.3467 -55.0078q-28.3467 -24.2676 -72.082 -24.2676q-48.5938 0 -76.9404 24.2676 q-28.3467 24.2686 -28.3467 55.0078v40.4463z" horiz-adv-x="311" unicode="•"/><glyph d="M55 0zM258 65q0 19 17.5 34t47.5 15q27 0 44.5 -15t17.5 -34v-25q0 -19 -17.5 -34t-44.5 -15q-30 0 -47.5 15t-17.5 34v25zM55 64q0 19 17.5 34t47.5 15q27 0 44.5 -15t17.5 -34v-25q0 -19 -17.5 -34t-44.5 -15q-30 0 -47.5 15t-17.5 34v25zM437 65q0 19 17.5 34t47.5 15 q27 0 44.5 -15t17.5 -34v-25q0 -19 -17.5 -34t-44.5 -15q-30 0 -47.5 15t-17.5 34v25z" horiz-adv-x="609" unicode="…"/><glyph horiz-adv-x="181"/><glyph d="M285 101q7 -18 -0.5 -35.5t-22.5 -28.5t-34 -12.5t-36 12.5l-129 181q-9 15 -10 27t6 28l128 171q16 18 37 17.5t37.5 -12.5t23 -31t-5.5 -38l-94 -132z" horiz-adv-x="341" unicode="‹"/><glyph d="M57 385q-8 18 -0.5 35.5t22.5 28.5t34 12.5t36 -12.5l129 -181q9 -15 10 -27t-6 -28l-128 -171q-17 -18 -37.5 -17.5t-37 12.5t-23 31t5.5 38l94 132z" horiz-adv-x="341" unicode="›"/><glyph horiz-adv-x="226"/><glyph d="M5 343q-16 3 -24 16t-8 28t8 28t24 16h61q6 46 25.5 86t51.5 69.5t75.5 46.5t99.5 17q39 0 72 -9t57.5 -24t38 -34t13.5 -40q0 -20 -11.5 -31t-28.5 -11t-30 4.5t-30 15.5q-15 10 -34 17t-48 7q-51 0 -87.5 -27.5t-46.5 -86.5h171q21 -1 31 -14.5t10 -29.5t-10 -29.5 t-31 -14.5h-174v-56h174q21 -1 31 -14.5t10 -29.5t-10 -29.5t-31 -14.5h-169q11 -54 47.5 -79t84.5 -25q29 0 46.5 4.5t33.5 13.5q11 7 18.5 14t15 12t15.5 6t20 -3q18 -7 25.5 -18t7.5 -28q0 -21 -13.5 -40t-38 -33.5t-57.5 -23.5t-72 -9q-54 0 -97 16t-75 44t-52 66.5 t-27 82.5h-62q-16 3 -24 16t-8 28t8 28t24 16h58v56h-58v0z" horiz-adv-x="520" unicode="€"/><glyph d="M397 432q-12 0 -19 6t-12 13l-35 105v-139q0 -8 -7.5 -14.5t-19.5 -6.5t-19.5 6.5t-7.5 14.5v206q0 8 7.5 14.5t19.5 6.5h8q23 0 31 -16l54 -135l52 135q10 17 32 17l7 -1q13 0 20.5 -6.5t7.5 -14.5v-206q0 -8 -7.5 -14.5t-20.5 -6.5q-12 0 -19 6.5t-7 14.5v139l-36 -105 q-4 -7 -11 -13t-18 -6zM220 640q27 0 27 -25q0 -11 -7 -17.5t-20 -6.5h-50v-174q0 -8 -7 -15t-19 -7t-19 7t-7 15v174h-50q-12 0 -19 6.5t-7 17.5q0 25 26 25h152z" horiz-adv-x="558" unicode="™"/><glyph d="M0 510h510v-510h-510v510z" horiz-adv-x="510" unicode=""/><glyph d="M101 500v30q0 94 45.5 132t133.5 38q22 0 42 -4t35.5 -12.5t24.5 -20.5t9 -27q0 -22 -11.5 -35t-34.5 -13q-17 0 -30.5 4t-34.5 4q-35 0 -49 -14t-14 -48v-34h77q17 0 30 -12.5t13 -32.5q0 -22 -13 -34.5t-30 -12.5h-77v-371q0 -18 -15.5 -32.5t-40.5 -14.5 q-28 0 -44 14.5t-16 32.5v371h-35q-17 0 -30 12.5t-13 34.5q0 20 13 32.5t30 12.5h35zM453 463q0 18 16.5 32.5t43.5 14.5q26 0 41.5 -14.5t15.5 -32.5v-426q0 -18 -15.5 -32.5t-41.5 -14.5q-27 0 -43.5 14.5t-16.5 32.5v426zM453 643q0 18 16.5 32.5t43.5 14.5 q26 0 41.5 -14.5t15.5 -32.5v-24q0 -18 -15.5 -32.5t-41.5 -14.5q-27 0 -43.5 14.5t-16.5 32.5v24z" horiz-adv-x="644" unicode="ﬁ"/><glyph d="M101 500v30q0 94 45.5 132t133.5 38q22 0 42 -4t35.5 -12.5t24.5 -20.5t9 -27q0 -22 -11.5 -35t-34.5 -13q-17 0 -30.5 4t-34.5 4q-35 0 -49 -14t-14 -48v-34h77q17 0 30 -12.5t13 -32.5q0 -22 -13 -34.5t-30 -12.5h-77v-371q0 -18 -15.5 -32.5t-40.5 -14.5 q-28 0 -44 14.5t-16 32.5v371h-35q-17 0 -30 12.5t-13 34.5q0 20 13 32.5t30 12.5h35zM453 633q0 18 16.5 32.5t43.5 14.5q26 0 41.5 -14.5t15.5 -32.5v-596q0 -18 -15.5 -32.5t-41.5 -14.5q-27 0 -43.5 14.5t-16.5 32.5v596z" horiz-adv-x="644" unicode="ﬂ"/><glyph d="M0 0z" horiz-adv-x="540"/></font>
</defs>
</svg>
